<?xml version="1.0" standalone="no"?>
<!DOCTYPE svg PUBLIC "-//W3C//DTD SVG 1.1//EN" "http://www.w3.org/Graphics/SVG/1.1/DTD/svg11.dtd" >
<svg xmlns="http://www.w3.org/2000/svg" xmlns:xlink="http://www.w3.org/1999/xlink" version="1.1">
<metadata>
Created by FontForge 20170731 at Thu May 11 10:47:29 2023
 By Aleksey,,,
Copyright 2014-2017 Indian Type Foundry (info@indiantypefoundry.com)
</metadata>
<defs>
<font id="Poppins-Medium" horiz-adv-x="616" >
  <font-face 
    font-family="Poppins Medium"
    font-weight="500"
    font-stretch="normal"
    units-per-em="2048"
    panose-1="0 0 6 0 0 0 0 0 0 0"
    ascent="1638"
    descent="-410"
    x-height="1128"
    cap-height="1423"
    bbox="-1100 -1192 5202 2206"
    underline-thickness="102"
    underline-position="-307"
    unicode-range="U+000D-FB02"
  />
<missing-glyph horiz-adv-x="1024" 
d="M0 0v1434h1024v-1434h-1024zM512 809l348 522h-696zM573 717l349 -522v1044zM164 102h696l-348 523zM102 1239v-1044l349 522z" />
    <glyph glyph-name=".notdef" horiz-adv-x="1024" 
d="M0 0v1434h1024v-1434h-1024zM512 809l348 522h-696zM573 717l349 -522v1044zM164 102h696l-348 523zM102 1239v-1044l349 522z" />
    <glyph glyph-name=".null" horiz-adv-x="0" 
 />
    <glyph glyph-name="nonmarkingreturn" horiz-adv-x="682" 
 />
    <glyph glyph-name="NULL" horiz-adv-x="0" 
 />
    <glyph glyph-name="NULL" horiz-adv-x="0" 
 />
    <glyph glyph-name="CR" unicode="&#xd;" horiz-adv-x="532" 
 />
    <glyph glyph-name="space" unicode=" " horiz-adv-x="532" 
 />
    <glyph glyph-name="exclam" unicode="!" horiz-adv-x="657" 
d="M225 430l-26 993h247l-26 -993h-195zM477 135q0 -63 -42.5 -106t-104.5 -43q-63 0 -106.5 43t-43.5 106t43.5 106.5t106.5 43.5q62 0 104.5 -43.5t42.5 -106.5z" />
    <glyph glyph-name="quotedbl" unicode="&#x22;" horiz-adv-x="661" 
d="M96 1212l-26 420h211l-25 -420h-160zM406 1212l-27 420h211l-25 -420h-159z" />
    <glyph glyph-name="numbersign" unicode="#" horiz-adv-x="1785" 
d="M1049 584l75 354h-401l-76 -354h402zM924 0l82 379h-402l-82 -379h-223l82 379h-318v205h361l76 354h-316v205h359l80 373h223l-80 -373h401l80 373h223l-79 -373h272v-205h-315l-76 -354h270v-205h-313l-82 -379h-223z" />
    <glyph glyph-name="dollar" unicode="$" horiz-adv-x="1331" 
d="M553 -178v166q-194 18 -312 120t-118 271h250q6 -79 51 -131.5t129 -67.5v451q-82 20 -126 33t-111.5 45t-102.5 69.5t-62.5 102t-27.5 147.5q0 170 118.5 281.5t311.5 128.5v168h133v-166q181 -15 291 -113t123 -268h-250q-6 64 -49.5 114t-114.5 68v-442
q82 -20 126 -32.5t111 -43.5t102 -68t62 -101.5t27 -147.5q0 -157 -115 -277.5t-313 -138.5v-168h-133zM879 393q0 82 -50 128t-143 75v-416q90 15 141.5 73.5t51.5 139.5zM360 1040q0 -83 50 -130t143 -76v413q-88 -11 -140.5 -63.5t-52.5 -143.5z" />
    <glyph glyph-name="percent" unicode="%" horiz-adv-x="1626" 
d="M86 1133q0 149 87 234t224 85t224.5 -85t87.5 -234q0 -150 -87.5 -236t-224.5 -86t-224 86t-87 236zM397 1311q-129 0 -129 -178q0 -181 129 -181t129 181q0 178 -129 178zM289 0l817 1425h229l-817 -1425h-229zM920 295q0 150 86.5 234.5t224.5 84.5q136 0 222.5 -84.5
t86.5 -234.5t-86.5 -236t-222.5 -86q-137 0 -224 86t-87 236zM1229 473q-129 0 -129 -178t129 -178t129 178t-129 178z" />
    <glyph glyph-name="ampersand" unicode="&#x26;" horiz-adv-x="1558" 
d="M1059 1106h-234q3 76 -36 118t-107 42t-110 -40t-42 -98q0 -56 32 -109t112 -140l377 -375l145 239h252l-184 -315q-9 -16 -27.5 -45t-24.5 -39l347 -344h-306l-176 176q-203 -203 -493 -203q-231 0 -371.5 119t-140.5 318q0 148 84 263t250 183q-59 71 -84 133.5
t-25 138.5q0 143 107.5 235.5t287.5 92.5q181 0 279.5 -99.5t87.5 -250.5zM584 172q191 0 340 158l-377 379q-242 -96 -242 -291q0 -105 77.5 -175.5t201.5 -70.5z" />
    <glyph glyph-name="quotesingle" unicode="'" horiz-adv-x="352" 
d="M96 1212l-26 420h211l-25 -420h-160z" />
    <glyph glyph-name="parenleft" unicode="(" horiz-adv-x="1007" 
d="M911 -381h-241q-200 193 -308 490t-108 636q0 228 48.5 439.5t153 403t255.5 325.5h241v-23q-159 -146 -267.5 -340t-157 -395t-48.5 -410q0 -310 110.5 -598t321.5 -505v-23z" />
    <glyph glyph-name="parenright" unicode=")" horiz-adv-x="1007" 
d="M96 -381h242q200 193 308 490t108 636q0 228 -48.5 439.5t-153 403t-255.5 325.5h-242v-23q159 -146 267.5 -340t157 -395t48.5 -410q0 -310 -110.5 -598t-321.5 -505v-23z" />
    <glyph glyph-name="asterisk" unicode="*" horiz-adv-x="1032" 
d="M612 1507l-45 -299l236 183l92 -164l-281 -105l281 -104l-94 -168l-234 184l43 -297h-188l39 297l-234 -188l-98 174l279 104l-279 101l94 168l240 -185l-41 299h190z" />
    <glyph glyph-name="plus" unicode="+" horiz-adv-x="1462" 
d="M623 1262h217v-424h413v-197h-413v-424h-217v424h-414v197h414v424z" />
    <glyph glyph-name="comma" unicode="," horiz-adv-x="460" 
d="M10 -285l146 566h254l-248 -566h-152z" />
    <glyph glyph-name="hyphen" unicode="-" horiz-adv-x="1198" 
d="M178 643v197h842v-197h-842z" />
    <glyph glyph-name="period" unicode="." horiz-adv-x="493" 
d="M395 135q0 -63 -42.5 -106t-104.5 -43q-63 0 -106.5 43t-43.5 106t43.5 106.5t106.5 43.5q62 0 104.5 -43.5t42.5 -106.5z" />
    <glyph glyph-name="slash" unicode="/" horiz-adv-x="1052" 
d="M125 -358l555 2291h231l-557 -2291h-229z" />
    <glyph glyph-name="zero" unicode="0" horiz-adv-x="1312" 
d="M123 766q0 134 15 242.5t52.5 206t96.5 163.5t152.5 104t215.5 38t215.5 -38t153 -104t97 -163.5t52.5 -206t15 -242.5q0 -136 -15 -246.5t-52.5 -208.5t-97 -164t-153 -104.5t-215.5 -38.5t-215.5 38.5t-153 104.5t-96.5 164t-52 208t-15 247zM958 766q0 66 -2.5 118
t-10 110.5t-21 102t-36.5 85t-54 67.5t-76.5 42t-102.5 16t-102.5 -16t-76.5 -42t-54 -67.5t-36.5 -85t-21 -102t-10 -110.5t-2.5 -118q0 -82 3.5 -143.5t14 -128.5t32 -113.5t54 -85.5t83 -58.5t116.5 -19.5t116.5 19.5t83 58.5t54 85.5t32 113.5t14 128.5t3.5 143.5z" />
    <glyph glyph-name="one" unicode="1" horiz-adv-x="716" 
d="M283 0v1280h-191v213h426v-1493h-235z" />
    <glyph glyph-name="two" unicode="2" horiz-adv-x="1181" 
d="M104 20v170q48 42 131 113t132 113.5t119.5 107.5t112.5 109.5t91 104.5t75 109.5t44 105.5t18 110q0 262 -241 262q-120 0 -186.5 -76.5t-71.5 -206.5h-226q3 118 41.5 211.5t104 151.5t151 88.5t185.5 30.5q224 0 349.5 -123t125.5 -328q0 -66 -17.5 -133t-42.5 -122
t-70 -118.5t-82.5 -108t-98.5 -105t-99.5 -95t-104 -92.5t-93.5 -84h649v-195h-996z" />
    <glyph glyph-name="three" unicode="3" horiz-adv-x="1216" 
d="M119 1124q12 190 146.5 297t342.5 107q216 0 337.5 -110t121.5 -279q0 -126 -67 -216t-162 -122v-8q120 -36 188 -133.5t68 -249.5q0 -185 -126.5 -301.5t-353.5 -116.5q-221 0 -363.5 114t-152.5 326h226q8 -108 84 -177t204 -69q126 0 193 68.5t67 177.5
q0 143 -90.5 203.5t-279.5 60.5h-53v193h55q165 2 252.5 54.5t87.5 168.5q0 99 -63 157t-181 58q-115 0 -178.5 -58.5t-75.5 -144.5h-227z" />
    <glyph glyph-name="four" unicode="4" horiz-adv-x="1325" 
d="M836 0v311h-742v176l688 988h283v-961h190v-203h-190v-311h-229zM362 514h484v723z" />
    <glyph glyph-name="five" unicode="5" horiz-adv-x="1308" 
d="M184 1497h901v-205h-686v-407q43 58 128 96.5t182 38.5q106 0 190.5 -30.5t137.5 -79.5t88 -115.5t49 -134t14 -138.5q0 -113 -32.5 -207t-95.5 -165t-162 -110.5t-226 -39.5q-223 0 -358 110.5t-162 292.5h227q24 -97 101 -152.5t194 -55.5q145 0 218 88t73 233
q0 148 -73 226.5t-218 78.5q-100 0 -169 -50t-99 -136h-222v862z" />
    <glyph glyph-name="six" unicode="6" horiz-adv-x="1314" 
d="M1141 1147h-215q-22 94 -81.5 141t-166.5 47q-163 0 -242.5 -124t-83.5 -410q54 90 155.5 139t221.5 49q205 0 332 -131t127 -360q0 -220 -129 -359t-361 -139q-128 0 -223.5 36.5t-156.5 100.5t-98.5 164t-52.5 215t-15 264q0 750 528 750q105 0 190.5 -31.5t140.5 -86
t87.5 -121.5t42.5 -144zM678 793q-125 0 -212 -75t-87 -216t80 -224t227 -83q128 0 203.5 79.5t75.5 212.5q0 140 -72.5 223t-214.5 83z" />
    <glyph glyph-name="seven" unicode="7" horiz-adv-x="1146" 
d="M82 1487h987v-174l-569 -1313h-236l576 1288h-758v199z" />
    <glyph glyph-name="eight" unicode="8" horiz-adv-x="1306" 
d="M375 780q-213 106 -213 336q0 83 31 155t90 128t154.5 88.5t215.5 32.5t215.5 -32.5t155 -89t90.5 -128.5t31 -154q0 -115 -58.5 -202t-154.5 -134q116 -44 184 -140.5t68 -227.5q0 -202 -148.5 -325.5t-382.5 -123.5q-233 0 -380.5 123.5t-147.5 325.5q0 132 67.5 229
t182.5 139zM653 854q117 0 193 66t76 167q0 114 -72 176t-197 62q-123 0 -194.5 -62t-71.5 -178q0 -101 74.5 -166t191.5 -65zM653 678q-135 0 -220 -66t-85 -192q0 -116 82.5 -189t222.5 -73q138 0 219.5 73.5t81.5 188.5q0 123 -82.5 190.5t-218.5 67.5z" />
    <glyph glyph-name="nine" unicode="9" horiz-adv-x="1300" 
d="M199 406h215q42 -209 270 -209q96 0 156 46t92.5 158.5t32.5 300.5q-50 -69 -139 -107t-193 -38q-99 0 -185 31t-151 89t-102 150t-37 207q0 226 131.5 360t363.5 134q143 0 242.5 -48t159 -146.5t86 -234.5t26.5 -325q0 -157 -14 -274.5t-48.5 -214.5t-91 -157.5
t-142 -93t-201.5 -32.5q-112 0 -200.5 33t-144.5 90t-87.5 128t-38.5 153zM674 754q123 0 193.5 76.5t70.5 203.5q0 141 -75 220t-204 79t-203.5 -81t-74.5 -212q0 -125 73 -205.5t220 -80.5z" />
    <glyph glyph-name="colon" unicode=":" horiz-adv-x="501" 
d="M395 135q0 -63 -42.5 -106t-104.5 -43q-63 0 -106.5 43t-43.5 106t43.5 106.5t106.5 43.5q62 0 104.5 -43.5t42.5 -106.5zM395 995q0 -63 -42.5 -106t-104.5 -43q-63 0 -106.5 43t-43.5 106t43.5 106.5t106.5 43.5q62 0 104.5 -43.5t42.5 -106.5z" />
    <glyph glyph-name="semicolon" unicode=";" horiz-adv-x="622" 
d="M440 995q0 -63 -42.5 -106t-104.5 -43q-63 0 -106.5 43t-43.5 106t43.5 106.5t106.5 43.5q62 0 104.5 -43.5t42.5 -106.5zM66 -285l145 566h254l-248 -566h-151z" />
    <glyph glyph-name="less" unicode="&#x3c;" horiz-adv-x="1253" 
d="M494 739l473 -465h-295l-471 465l471 465h295z" />
    <glyph glyph-name="equal" unicode="=" horiz-adv-x="1585" 
d="M248 410v196h1089v-196h-1089zM248 874v197h1089v-197h-1089z" />
    <glyph glyph-name="greater" unicode="&#x3e;" horiz-adv-x="1208" 
d="M229 274l473 465l-473 465h295l471 -465l-471 -465h-295z" />
    <glyph glyph-name="question" unicode="?" horiz-adv-x="1101" 
d="M82 1022q-2 188 122.5 305t332.5 117t334 -115t126 -313q0 -106 -36 -186.5t-101 -130t-151 -74.5t-191 -25l-8 -162h-203l-10 322h68q75 0 132 6t111 22.5t89 44.5t56 74t21 109q0 108 -62.5 169.5t-172.5 61.5t-174 -59.5t-64 -165.5h-219zM553 135q0 -63 -42.5 -106
t-104.5 -43q-63 0 -106.5 43t-43.5 106t43.5 106.5t106.5 43.5q62 0 104.5 -43.5t42.5 -106.5z" />
    <glyph glyph-name="at" unicode="@" horiz-adv-x="2099" 
d="M1489 -14q-104 0 -164 46t-74 130q-64 -81 -160 -128.5t-200 -47.5q-158 0 -247 95.5t-89 258.5q0 115 37.5 222t103 188t161.5 129.5t206 48.5q179 0 250 -121l18 102h203l-102 -585q-7 -56 -5.5 -96.5t25 -63.5t72.5 -23q60 0 108.5 47.5t76.5 122t43 156.5t15 160
q0 260 -151.5 397t-439.5 137q-180 0 -337 -67t-267.5 -183.5t-174 -279t-63.5 -346.5q0 -262 156 -399.5t444 -137.5q193 0 340 72l31 -156q-188 -80 -418 -80q-339 0 -541.5 185t-202.5 497q0 220 79 414.5t217.5 336t337.5 224t427 82.5q351 0 551.5 -187.5t200.5 -498.5
q0 -121 -31.5 -236t-89 -208t-148 -150t-198.5 -57zM1272 526q0 98 -54 161t-153 63q-88 0 -156.5 -56t-102.5 -140.5t-34 -178.5q0 -95 47.5 -152t143.5 -57q86 0 157.5 50.5t111.5 133.5t40 176z" />
    <glyph glyph-name="A" unicode="A" horiz-adv-x="1427" 
d="M1114 0l-102 291h-596l-103 -291h-243l510 1425h270l510 -1425h-246zM946 481l-231 662l-234 -662h465z" />
    <glyph glyph-name="B" unicode="B" horiz-adv-x="1290" 
d="M956 408q0 105 -72 166t-190 61h-307v-445h315q119 0 186.5 58t67.5 160zM920 1028q0 97 -65 151t-179 54h-289v-408h289q115 0 179.5 53t64.5 150zM1190 383q0 -167 -126.5 -275t-340.5 -108h-569v1423h542q218 0 339.5 -104t121.5 -262q0 -123 -66 -205t-176 -121
q115 -20 195 -120.5t80 -227.5z" />
    <glyph glyph-name="C" unicode="C" horiz-adv-x="1583" 
d="M76 715q0 208 98 375.5t264 259.5t365 92q227 0 404 -111.5t257 -316.5h-280q-112 223 -381 223q-216 0 -352 -142t-136 -380t136.5 -381.5t351.5 -143.5q269 0 381 224h280q-80 -205 -256.5 -315.5t-404.5 -110.5q-200 0 -365.5 91.5t-263.5 259t-98 376.5z" />
    <glyph glyph-name="D" unicode="D" horiz-adv-x="1452" 
d="M618 1423q344 0 550 -193.5t206 -522.5q0 -216 -93.5 -376.5t-264.5 -245.5t-398 -85h-464v1423h464zM387 190h231q250 0 383.5 136t133.5 381q0 247 -134 386.5t-383 139.5h-231v-1043z" />
    <glyph glyph-name="E" unicode="E" horiz-adv-x="1073" 
d="M940 1425v-190h-553v-418h492v-190h-492v-437h553v-190h-786v1425h786z" />
    <glyph glyph-name="F" unicode="F" horiz-adv-x="1054" 
d="M154 0v1423h837v-190h-604v-420h471v-190h-471v-623h-233z" />
    <glyph glyph-name="G" unicode="G" horiz-adv-x="1583" 
d="M803 1442q227 0 404 -111.5t257 -316.5h-280q-56 106 -154 160.5t-227 54.5q-215 0 -351.5 -141t-136.5 -373t136.5 -374t351.5 -142q190 0 308.5 106t145.5 289h-534v186h784v-182q-16 -124 -75 -234.5t-149 -194t-215 -132.5t-265 -49q-200 0 -365.5 91.5t-263.5 259
t-98 376.5q0 208 98 375.5t264 259.5t365 92z" />
    <glyph glyph-name="H" unicode="H" horiz-adv-x="1443" 
d="M1057 0v623h-670v-623h-233v1423h233v-610h670v610h233v-1423h-233z" />
    <glyph glyph-name="I" unicode="I" horiz-adv-x="540" 
d="M154 0v1423h233v-1423h-233z" />
    <glyph glyph-name="J" unicode="J" horiz-adv-x="1155" 
d="M694 397v1026h236v-1026q0 -190 -116 -300.5t-304 -110.5t-304 110.5t-116 300.5h236q2 -93 48 -148.5t136 -55.5q91 0 137.5 55.5t46.5 148.5z" />
    <glyph glyph-name="K" unicode="K" horiz-adv-x="1296" 
d="M938 0l-551 637v-637h-233v1423h233v-649l553 649h293l-619 -712l629 -711h-305z" />
    <glyph glyph-name="L" unicode="L" horiz-adv-x="909" 
d="M154 1423h233v-1235h481v-188h-714v1423z" />
    <glyph glyph-name="M" unicode="M" horiz-adv-x="1806" 
d="M154 0v1423h252l499 -1116l498 1116h250v-1423h-234v975l-434 -975h-162l-436 975v-975h-233z" />
    <glyph glyph-name="N" unicode="N" horiz-adv-x="1476" 
d="M1090 1425h233v-1425h-233l-703 1063v-1063h-233v1425h233l703 -1060v1060z" />
    <glyph glyph-name="O" unicode="O" horiz-adv-x="1605" 
d="M1530 715q0 -210 -97 -377.5t-262.5 -259.5t-367.5 -92q-199 0 -365 92t-264 260t-98 377q0 208 98 375.5t264 259.5t365 92q202 0 367.5 -92t262.5 -259t97 -376zM315 715q0 -239 136.5 -383t351.5 -144t351 144t136 383q0 238 -136 380t-351 142q-216 0 -352 -142
t-136 -380z" />
    <glyph glyph-name="P" unicode="P" horiz-adv-x="1218" 
d="M387 768h258q133 0 198.5 60.5t65.5 170.5q0 113 -65 173.5t-199 60.5h-258v-465zM1149 999q0 -80 -27.5 -152t-84.5 -134t-158 -98.5t-234 -36.5h-258v-578h-233v1423h491q123 0 220.5 -33.5t158.5 -92t93 -134.5t32 -164z" />
    <glyph glyph-name="Q" unicode="Q" horiz-adv-x="1611" 
d="M315 715q0 -239 136.5 -383t351.5 -144t351 144t136 383q0 238 -136 380t-351 142q-216 0 -352 -142t-136 -380zM1530 715q0 -197 -85.5 -356t-234.5 -255l342 -362h-297l-249 270q-91 -26 -203 -26q-199 0 -365 92t-264 260t-98 377q0 208 98 375.5t264 259.5t365 92
q202 0 367.5 -92t262.5 -259t97 -376z" />
    <glyph glyph-name="R" unicode="R" horiz-adv-x="1294" 
d="M909 997q0 111 -65.5 173.5t-198.5 62.5h-258v-477h258q132 0 198 65t66 176zM154 1423h491q123 0 220.5 -34t158.5 -92.5t93 -135t32 -164.5q0 -66 -18.5 -127t-56 -117t-103 -99t-152.5 -64l352 -590h-278l-328 569h-178v-569h-233v1423z" />
    <glyph glyph-name="S" unicode="S" horiz-adv-x="1236" 
d="M1114 403q0 -81 -33 -155.5t-93 -133t-155 -93.5t-210 -35q-219 0 -361.5 111t-142.5 296h250q8 -93 73 -152t181 -59q120 0 188 58t68 151q0 55 -26 95t-69.5 65t-100.5 43.5t-119.5 35t-125 35t-119.5 48t-100.5 70t-69.5 105t-26 148.5q0 186 134.5 296t354.5 110
q207 0 339 -103t147 -284h-258q-6 76 -70.5 130.5t-169.5 57.5q-106 3 -173 -48.5t-67 -150.5q0 -51 26 -89t69.5 -62t100 -42.5t119 -35.5t125 -36.5t119 -50t100 -71.5t69.5 -106t26 -148z" />
    <glyph glyph-name="T" unicode="T" horiz-adv-x="1155" 
d="M80 1233v190h993v-190h-379v-1233h-233v1233h-381z" />
    <glyph glyph-name="U" unicode="U" horiz-adv-x="1413" 
d="M152 520v903h233v-907q0 -162 85 -244t237 -82q153 0 238 82t85 244v907h234v-903q0 -132 -45 -235.5t-123.5 -168t-177.5 -97.5t-213 -33t-213 33t-175.5 97.5t-120.5 168t-44 235.5z" />
    <glyph glyph-name="V" unicode="V" horiz-adv-x="1421" 
d="M711 240l424 1183h245l-534 -1423h-271l-536 1423h250z" />
    <glyph glyph-name="W" unicode="W" horiz-adv-x="2045" 
d="M442 -2l-403 1425h248l295 -1159l319 1159h262l297 -1153l297 1153h250l-422 -1423h-264l-299 1077l-317 -1077z" />
    <glyph glyph-name="X" unicode="X" horiz-adv-x="1351" 
d="M987 0l-321 516l-301 -516h-261l443 711l-445 712h263l323 -520l303 520h260l-444 -712l442 -711h-262z" />
    <glyph glyph-name="Y" unicode="Y" horiz-adv-x="1239" 
d="M504 516l-473 907h260l330 -698l329 698h258l-471 -907v-516h-233v516z" />
    <glyph glyph-name="Z" unicode="Z" horiz-adv-x="1142" 
d="M1040 1423v-182l-661 -1038h661v-203h-938v182l660 1039h-660v202h938z" />
    <glyph glyph-name="bracketleft" unicode="[" horiz-adv-x="993" 
d="M303 -381v2294h426v-193h-207v-1906h207v-195h-426z" />
    <glyph glyph-name="backslash" unicode="\" horiz-adv-x="1468" 
d="M565 1933l615 -2291h-230l-614 2291h229z" />
    <glyph glyph-name="bracketright" unicode="]" horiz-adv-x="991" 
d="M688 -381v2294h-426v-193h207v-1906h-207v-195h426z" />
    <glyph glyph-name="asciicircum" unicode="^" horiz-adv-x="1339" 
d="M1024 344l-352 799l-357 -799h-241l485 1081h221l488 -1081h-244z" />
    <glyph glyph-name="underscore" unicode="_" horiz-adv-x="1634" 
d="M258 -299v217h1143v-217h-1143z" />
    <glyph glyph-name="grave" unicode="`" horiz-adv-x="520" 
d="M20 1432v198l453 -250v-172z" />
    <glyph glyph-name="a" unicode="a" horiz-adv-x="1388" 
d="M76 569q0 128 41.5 237t113 183t169 116t208.5 42q132 0 232 -52t159 -130v163h236v-1128h-236v168q-60 -80 -161.5 -133t-233.5 -53q-146 0 -266 73.5t-191 208.5t-71 305zM999 565q0 88 -28.5 161t-76.5 120t-109 72.5t-128 25.5q-139 0 -240.5 -100.5t-101.5 -274.5
q0 -175 102 -280t240 -105q67 0 128 25.5t109 73t76.5 120.5t28.5 162z" />
    <glyph glyph-name="b" unicode="b" horiz-adv-x="1388" 
d="M387 961q59 82 162.5 134t230.5 52q111 0 209 -42t169 -116.5t112 -183t41 -236.5t-41.5 -238t-112.5 -186.5t-169 -119.5t-208 -43q-131 0 -231.5 51t-161.5 131v-164h-233v1516h233v-555zM1073 569q0 174 -101.5 274.5t-242.5 100.5q-139 0 -240.5 -103t-101.5 -276
q0 -89 29 -162t77 -120.5t109 -73t127 -25.5q67 0 128.5 26.5t109.5 74t77 121.5t29 163z" />
    <glyph glyph-name="c" unicode="c" horiz-adv-x="1228" 
d="M76 565q0 262 154 422t399 160q205 0 338.5 -97.5t181.5 -277.5h-252q-30 84 -98 131t-170 47q-143 0 -228.5 -101.5t-85.5 -283.5q0 -183 85.5 -285t228.5 -102q203 0 268 178h252q-49 -171 -184 -272.5t-336 -101.5q-245 0 -399 160t-154 423z" />
    <glyph glyph-name="d" unicode="d" horiz-adv-x="1388" 
d="M76 569q0 128 41.5 237t113 183t170 116t209.5 42q110 0 217.5 -48.5t171.5 -127.5v545h236v-1516h-236v170q-58 -83 -159.5 -135.5t-231.5 -52.5q-226 0 -379 165t-153 422zM999 565q0 88 -28.5 161t-76.5 120t-109 72.5t-128 25.5q-139 0 -240.5 -100.5t-101.5 -274.5
q0 -175 102 -280t240 -105q67 0 128 25.5t109 73t76.5 120.5t28.5 162z" />
    <glyph glyph-name="e" unicode="e" horiz-adv-x="1263" 
d="M629 950q-121 0 -206.5 -76.5t-103.5 -207.5h625q-3 128 -92.5 206t-222.5 78zM1157 336q-50 -156 -185 -255t-333 -99q-246 0 -404.5 160.5t-158.5 422.5q0 264 155.5 423t407.5 159q243 0 396 -153.5t153 -401.5q0 -63 -8 -115h-863q12 -137 101.5 -218t220.5 -81
q189 0 266 158h252z" />
    <glyph glyph-name="f" unicode="f" horiz-adv-x="679" 
d="M182 0v938h-133v190h133v80q0 194 103 283.5t325 89.5v-195q-106 0 -149 -40.5t-43 -137.5v-80h209v-190h-209v-938h-236z" />
    <glyph glyph-name="g" unicode="g" horiz-adv-x="1388" 
d="M76 569q0 128 41.5 237t113 183t169 116t208.5 42q130 0 232 -51.5t159 -130.5v163h236v-1146q0 -237 -147 -388t-404 -151q-229 0 -380.5 107t-172.5 292h231q26 -88 113.5 -142t208.5 -54q141 0 228 86.5t87 249.5v188q-60 -80 -161 -134t-230 -54q-226 0 -379 165
t-153 422zM999 565q0 88 -28.5 161t-76.5 120t-109 72.5t-128 25.5q-139 0 -240.5 -100.5t-101.5 -274.5q0 -175 102 -280t240 -105q67 0 128 25.5t109 73t76.5 120.5t28.5 162z" />
    <glyph glyph-name="h" unicode="h" horiz-adv-x="1329" 
d="M154 0v1516h233v-519q59 71 150.5 110.5t199.5 39.5q197 0 323 -126.5t126 -354.5v-666h-232v631q0 152 -75.5 232.5t-206.5 80.5q-132 0 -208.5 -80.5t-76.5 -232.5v-631h-233z" />
    <glyph glyph-name="i" unicode="i" horiz-adv-x="540" 
d="M154 0v1128h233v-1128h-233zM272 1278q-63 0 -106 43t-43 106t43 106.5t106 43.5q62 0 105 -43.5t43 -106.5t-43 -106t-105 -43z" />
    <glyph glyph-name="j" unicode="j" horiz-adv-x="540" 
d="M272 1278q-63 0 -106 43t-43 106t43 106.5t106 43.5q62 0 105 -43.5t43 -106.5t-43 -106t-105 -43zM154 1128h233v-1349q0 -166 -83.5 -241t-240.5 -75h-120v197h80q72 0 101.5 27.5t29.5 91.5v1349z" />
    <glyph glyph-name="k" unicode="k" horiz-adv-x="1134" 
d="M154 0v1516h233v-881l410 493h323l-520 -565l520 -563h-315l-418 485v-485h-233z" />
    <glyph glyph-name="l" unicode="l" horiz-adv-x="540" 
d="M154 0v1516h233v-1516h-233z" />
    <glyph glyph-name="m" unicode="m" horiz-adv-x="2127" 
d="M1753 0v631q0 152 -76 232.5t-207 80.5q-132 0 -208 -80.5t-76 -232.5v-631h-232v631q0 152 -75.5 232.5t-206.5 80.5q-132 0 -208.5 -80.5t-76.5 -232.5v-631h-233v1128h233v-129q57 69 145 108.5t189 39.5q136 0 241.5 -57t163.5 -166q52 102 161 162.5t233 60.5
q100 0 184.5 -31.5t147 -90.5t98 -151.5t35.5 -207.5v-666h-232z" />
    <glyph glyph-name="n" unicode="n" horiz-adv-x="1329" 
d="M954 0v631q0 152 -75.5 232.5t-206.5 80.5q-132 0 -208.5 -80.5t-76.5 -232.5v-631h-233v1128h233v-129q57 69 146 108.5t190 39.5q205 0 334 -126t129 -355v-666h-232z" />
    <glyph glyph-name="o" unicode="o" horiz-adv-x="1306" 
d="M1229 565q0 -173 -79 -307t-212 -205t-295 -71q-120 0 -224 41.5t-179.5 116.5t-118.5 185t-43 240t44.5 240t122 184.5t183 116t225.5 41.5q161 0 291.5 -70.5t207.5 -204.5t77 -307zM315 565q0 -183 94 -282t234 -99q67 0 128 24t110 70t78.5 120t29.5 167t-28.5 167
t-76.5 119t-108 69t-127 24q-141 0 -237.5 -98.5t-96.5 -280.5z" />
    <glyph glyph-name="p" unicode="p" horiz-adv-x="1388" 
d="M387 963q60 78 162 131t231 53q148 0 268.5 -71t191.5 -204t71 -303q0 -128 -41.5 -238t-112.5 -186.5t-169 -119.5t-208 -43q-128 0 -228 52.5t-165 129.5v-701h-233v1665h233v-165zM1073 569q0 174 -101.5 274.5t-242.5 100.5q-139 0 -240.5 -103t-101.5 -276
q0 -89 29 -162t77 -120.5t109 -73t127 -25.5q67 0 128.5 26.5t109.5 74t77 121.5t29 163z" />
    <glyph glyph-name="q" unicode="q" horiz-adv-x="1388" 
d="M76 569q0 128 41.5 237t113 183t170 116t209.5 42q130 0 232 -52.5t157 -129.5v163h236v-1665h-236v701q-56 -75 -160.5 -128.5t-236.5 -53.5q-108 0 -204.5 43t-167.5 119.5t-112.5 186.5t-41.5 238zM999 565q0 88 -28.5 161t-76.5 120t-109 72.5t-128 25.5
q-139 0 -240.5 -100.5t-101.5 -274.5q0 -175 102 -280t240 -105q67 0 128 25.5t109 73t76.5 120.5t28.5 162z" />
    <glyph glyph-name="r" unicode="r" horiz-adv-x="786" 
d="M387 594v-594h-233v1128h233v-163q106 182 338 182v-242h-59q-138 0 -208.5 -70t-70.5 -241z" />
    <glyph glyph-name="s" unicode="s" horiz-adv-x="1093" 
d="M995 315q0 -145 -118 -239t-314 -94q-200 0 -331.5 104t-139.5 260h242q6 -71 68.5 -119.5t156.5 -48.5q99 0 153 37.5t54 97.5q0 35 -22.5 61.5t-60.5 44t-87 32t-103.5 29t-108.5 31.5t-103 43.5t-87 60.5t-60.5 87t-22.5 119q0 139 119.5 232.5t314.5 93.5
q192 0 309.5 -97.5t126.5 -265.5h-233q-6 75 -62 120.5t-149 45.5q-92 0 -141.5 -34.5t-49.5 -92.5q0 -46 35 -78t91.5 -51.5t125 -37t137.5 -42.5t126 -59.5t94.5 -95.5t39.5 -144z" />
    <glyph glyph-name="t" unicode="t" horiz-adv-x="761" 
d="M190 313v625h-133v190h133v281h236v-281h274v-190h-274v-625q0 -64 29 -91t102 -27h143v-195h-184q-158 0 -242 74t-84 239z" />
    <glyph glyph-name="u" unicode="u" horiz-adv-x="1329" 
d="M1176 1128v-1128h-234v135q-55 -71 -144 -111t-190 -40q-100 0 -184.5 31.5t-147 90.5t-98 151.5t-35.5 207.5v663h232v-628q0 -152 76 -233t206 -81q132 0 208.5 81t76.5 233v628h234z" />
    <glyph glyph-name="v" unicode="v" horiz-adv-x="1179" 
d="M20 1128h250l320 -919l319 919h248l-430 -1128h-278z" />
    <glyph glyph-name="w" unicode="w" horiz-adv-x="1689" 
d="M373 0l-353 1128h238l236 -907l239 907h244l229 -903l234 903h229l-350 -1128h-246l-227 834l-228 -834h-245z" />
    <glyph glyph-name="x" unicode="x" horiz-adv-x="1021" 
d="M737 0l-243 383l-230 -383h-244l365 555l-365 573h265l243 -383l230 383h243l-364 -557l364 -571h-264z" />
    <glyph glyph-name="y" unicode="y" horiz-adv-x="1191" 
d="M598 268l330 860h241l-692 -1658h-241l229 548l-445 1110h261z" />
    <glyph glyph-name="z" unicode="z" horiz-adv-x="964" 
d="M872 1128v-190l-512 -748h512v-190h-782v190l514 748h-514v190h782z" />
    <glyph glyph-name="braceleft" unicode="{" horiz-adv-x="1056" 
d="M461 489q0 80 -52.5 129.5t-150.5 59.5v176q98 10 150.5 59t52.5 129q0 76 -17.5 277.5t-17.5 288.5q0 146 85 227.5t224 81.5h137v-203h-90q-65 0 -97 -30t-32 -95q0 -66 16.5 -264.5t16.5 -290.5q0 -222 -213 -266v-4q213 -44 213 -266q0 -92 -16.5 -290.5
t-16.5 -264.5q0 -65 32 -95t97 -30h90v-203h-137q-139 0 -224 81.5t-85 227.5q0 87 17.5 288t17.5 277z" />
    <glyph glyph-name="bar" unicode="|" horiz-adv-x="663" 
d="M215 1640h234v-1871h-234v1871z" />
    <glyph glyph-name="braceright" unicode="}" horiz-adv-x="1056" 
d="M596 489q0 80 52.5 129.5t150.5 59.5v176q-98 10 -150.5 59t-52.5 129q0 76 17.5 277.5t17.5 288.5q0 146 -85 227.5t-224 81.5h-138v-203h90q65 0 97 -30t32 -95q0 -66 -16 -264.5t-16 -290.5q0 -222 213 -266v-4q-213 -44 -213 -266q0 -92 16 -290.5t16 -264.5
q0 -65 -32 -95t-97 -30h-90v-203h138q139 0 224 81.5t85 227.5q0 87 -17.5 288t-17.5 277z" />
    <glyph glyph-name="asciitilde" unicode="~" horiz-adv-x="1132" 
d="M74 487q30 173 113.5 255.5t211.5 82.5q54 0 106 -21t85.5 -45.5t77 -45.5t82.5 -21q52 0 91 33.5t48 95.5h170q-30 -173 -115 -255.5t-213 -82.5q-54 0 -105.5 21t-84 45.5t-75.5 45.5t-83 21q-53 0 -92.5 -34t-48.5 -95h-168z" />
    <glyph glyph-name="uni00A0" unicode="&#xa0;" horiz-adv-x="532" 
 />
    <glyph glyph-name="exclamdown" unicode="&#xa1;" horiz-adv-x="657" 
d="M225 717l-26 -993h247l-26 993h-195zM477 1012q0 63 -42.5 106t-104.5 43q-63 0 -106.5 -43t-43.5 -106t43.5 -106.5t106.5 -43.5q62 0 104.5 43.5t42.5 106.5z" />
    <glyph glyph-name="cent" unicode="&#xa2;" horiz-adv-x="1413" 
d="M1157 356q-15 -144 -128 -241.5t-290 -116.5v-178h-133v178q-152 14 -260 89.5t-159.5 188.5t-51.5 254q0 142 51.5 256t159.5 189.5t260 89.5v178h133v-178q177 -19 290 -116.5t128 -241.5h-217q-52 167 -266 167q-146 0 -232 -92t-86 -252t86 -251t232 -91
q214 0 266 168h217z" />
    <glyph glyph-name="sterling" unicode="&#xa3;" horiz-adv-x="1323" 
d="M217 1030q0 206 129 326.5t336 120.5q112 0 199 -34.5t140 -95.5t80 -138.5t29 -168.5h-212q0 110 -57.5 175t-178.5 65q-110 0 -177 -64t-67 -198q0 -99 47 -238h398v-162h-351q11 -53 11 -88q0 -198 -137 -344h737v-190h-948l-41 127q87 94 127.5 184t40.5 225
q0 36 -11 86h-225v162h174q-43 127 -43 250z" />
    <glyph glyph-name="currency" unicode="&#xa4;" horiz-adv-x="1122" 
d="M748 772q0 104 -55.5 162.5t-133.5 58.5t-131 -58.5t-53 -162.5t52 -161.5t130 -57.5t134.5 58t56.5 161zM897 336l-127 125q-89 -53 -213 -53q-119 0 -207 51l-123 -123l-104 104l119 121q-60 88 -60 211q0 126 64 215l-123 121l104 104l127 -127q93 52 207 52
q116 0 209 -52l127 127l102 -104l-120 -123q63 -88 63 -213q0 -123 -63 -211l120 -121z" />
    <glyph glyph-name="yen" unicode="&#xa5;" horiz-adv-x="1239" 
d="M504 516l-64 121l-346 4v168h256l-319 614h260l327 -694l328 694h262l-319 -614h258v-168l-346 -4l-64 -121v-61h410v-168h-410v-287h-233v287h-410v168h410v61z" />
    <glyph glyph-name="brokenbar" unicode="&#xa6;" horiz-adv-x="663" 
d="M215 563h234v-794h-234v794zM449 846h-234v794h234v-794z" />
    <glyph glyph-name="section" unicode="&#xa7;" horiz-adv-x="1183" 
d="M152 1094q0 143 119.5 241.5t318.5 98.5q191 0 310.5 -89.5t119.5 -248.5h-234q-6 82 -54.5 129t-141.5 47q-98 0 -151.5 -40.5t-53.5 -117.5q0 -70 64 -114.5t258 -114.5q201 -71 297 -159.5t96 -225.5q0 -109 -63 -192.5t-187 -135.5q87 -50 134.5 -113.5t47.5 -152.5
q0 -143 -119.5 -241.5t-318.5 -98.5q-191 0 -310.5 89.5t-119.5 248.5h233q6 -82 55 -129t142 -47q98 0 151.5 40t53.5 117q0 70 -64 115t-258 115q-201 71 -297 159.5t-96 225.5q0 110 64.5 196t187.5 131q-89 50 -136.5 113.5t-47.5 153.5zM860 500q0 91 -74.5 152
t-195.5 61q-122 0 -194 -61.5t-72 -151.5q0 -89 75 -151t197 -62q120 0 192 61.5t72 151.5z" />
    <glyph glyph-name="dieresis" unicode="&#xa8;" horiz-adv-x="638" 
d="M143 1270q-53 0 -88 35t-35 88q0 51 35.5 87t87.5 36q51 0 87 -36t36 -87q0 -52 -36 -87.5t-87 -35.5zM496 1270q-52 0 -87.5 35t-35.5 88q0 51 35.5 87t87.5 36q51 0 86.5 -36t35.5 -87q0 -52 -35.5 -87.5t-86.5 -35.5z" />
    <glyph glyph-name="copyright" unicode="&#xa9;" horiz-adv-x="1615" 
d="M94 713q0 159 52.5 294.5t145.5 231t226.5 149.5t290.5 54q208 0 371 -92.5t252.5 -258.5t89.5 -378t-89.5 -378.5t-252.5 -259.5t-371 -93q-157 0 -290.5 54.5t-226.5 150.5t-145.5 231.5t-52.5 294.5zM1419 713q0 290 -165 462.5t-445 172.5q-282 0 -447 -172.5
t-165 -462.5q0 -288 165.5 -462.5t446.5 -174.5q279 0 444.5 174.5t165.5 462.5zM1223 883q-38 142 -149 221.5t-271 79.5q-192 0 -319.5 -129t-127.5 -340t127.5 -341t319.5 -130q156 0 268.5 83t151.5 218h-213q-26 -66 -75 -100.5t-132 -34.5q-109 0 -174.5 79t-65.5 226
t65.5 225t174.5 78q77 0 131 -35t76 -100h213z" />
    <glyph glyph-name="ordfeminine" unicode="&#xaa;" horiz-adv-x="933" 
d="M414 711q-149 0 -250 106t-101 268q0 160 100 263.5t245 103.5q166 0 258 -111v99h182v-717h-182v94q-35 -46 -100.5 -76t-151.5 -30zM459 1311q-85 0 -146 -61.5t-61 -166.5t61.5 -168t145.5 -63q86 0 146.5 61.5t60.5 167.5t-60.5 168t-146.5 62z" />
    <glyph glyph-name="guillemotleft" unicode="&#xab;" horiz-adv-x="1001" 
d="M309 604l197 -358h-225l-189 358l189 359h225zM702 604l197 -358h-225l-189 358l189 359h225z" />
    <glyph glyph-name="logicalnot" unicode="&#xac;" horiz-adv-x="1329" 
d="M76 709v182h1163v-465h-233v283h-930z" />
    <glyph glyph-name="uni00AD" unicode="&#xad;" horiz-adv-x="1198" 
d="M178 643v197h842v-197h-842z" />
    <glyph glyph-name="registered" unicode="&#xae;" horiz-adv-x="1058" 
d="M530 1350q-149 0 -237 -91.5t-88 -242.5t88 -242.5t237 -91.5q148 0 237 92t89 242t-89 242t-237 92zM530 588q-188 0 -308 120t-120 308t120 308t308 120q186 0 306 -120.5t120 -307.5t-120 -307.5t-306 -120.5zM719 1098q0 -91 -84 -129l108 -168h-155l-90 153h-15
v-153h-129v440h207q71 0 114.5 -39.5t43.5 -103.5zM553 1126h-70v-67h70q39 0 39 35q0 32 -39 32z" />
    <glyph glyph-name="macron" unicode="&#xaf;" horiz-adv-x="790" 
d="M20 1300v175h750v-175h-750z" />
    <glyph glyph-name="degree" unicode="&#xb0;" horiz-adv-x="874" 
d="M57 1075q0 165 107 264t274 99q166 0 272.5 -99t106.5 -264q0 -163 -109 -263.5t-276 -100.5t-271 99.5t-104 264.5zM631 1075q0 108 -57.5 169t-139.5 61q-80 0 -136 -60.5t-56 -169.5q0 -110 54 -168.5t136 -58.5t140.5 59t58.5 168z" />
    <glyph glyph-name="plusminus" unicode="&#xb1;" horiz-adv-x="1468" 
d="M627 1272h217v-314h411v-196h-411v-305h411v-197h-1042v197h414v305h-414v196h414v314z" />
    <glyph glyph-name="twosuperior" unicode="&#xb2;" horiz-adv-x="696" 
d="M55 1239q5 98 78 157.5t199 59.5q125 0 200.5 -69t75.5 -164q0 -74 -44 -131t-148 -127l-150 -97h344v-147h-551v135l222 162q68 52 101.5 97.5t33.5 98.5q0 46 -25.5 74.5t-64.5 28.5q-37 0 -59 -21t-27 -57h-185z" />
    <glyph glyph-name="threesuperior" unicode="&#xb3;" horiz-adv-x="700" 
d="M45 1247q8 93 88.5 151t206.5 58q120 0 203.5 -63t83.5 -152q0 -61 -34.5 -101.5t-90.5 -56.5v-4q57 -20 94 -62.5t37 -103.5q0 -87 -85 -144.5t-216 -57.5q-130 0 -210.5 60t-84.5 165h180q7 -44 37 -67t76 -23q47 0 76.5 25t29.5 67q0 41 -30 64.5t-80 23.5h-76v119h69
q51 0 81 22t30 64q0 40 -27.5 64t-76.5 24q-87 0 -107 -72h-174z" />
    <glyph glyph-name="acute" unicode="&#xb4;" horiz-adv-x="493" 
d="M20 1380l453 250v-198l-453 -224v172z" />
    <glyph glyph-name="uni00B5" unicode="&#xb5;" horiz-adv-x="1339" 
d="M1186 1128v-1128h-234v178q-55 -95 -148 -144.5t-212 -49.5q-123 0 -207 63v-584h-231v1665h231v-630q0 -152 76 -233t207 -81q132 0 208 81t76 233v630h234z" />
    <glyph glyph-name="paragraph" unicode="&#xb6;" horiz-adv-x="1290" 
d="M557 1423h580v-1423h-207v1241h-137v-1241h-207v578h-29q-123 0 -217.5 33t-152 91.5t-86.5 133t-29 163.5t29 164t86.5 134t152.5 92.5t217 33.5z" />
    <glyph glyph-name="periodcentered" unicode="&#xb7;" horiz-adv-x="499" 
d="M403 686q0 -63 -42.5 -106t-104.5 -43q-63 0 -106.5 43t-43.5 106t43.5 106.5t106.5 43.5q62 0 104.5 -43.5t42.5 -106.5z" />
    <glyph glyph-name="cedilla" unicode="&#xb8;" horiz-adv-x="571" 
d="M285 14v-112q118 0 192 -56t74 -159q0 -102 -74 -163t-186 -61h-271v148h224q58 0 86 16.5t28 59.5t-28 59t-86 16h-113v252h154z" />
    <glyph glyph-name="onesuperior" unicode="&#xb9;" horiz-adv-x="428" 
d="M152 721v582h-111v139h293v-721h-182z" />
    <glyph glyph-name="ordmasculine" unicode="&#xba;" horiz-adv-x="909" 
d="M63 1081q0 167 111.5 269t280.5 102q170 0 280.5 -101.5t110.5 -269.5q0 -164 -113 -267t-282 -103t-278.5 102.5t-109.5 267.5zM657 1079q0 110 -60 171t-144 61t-142.5 -61t-58.5 -171q0 -106 57.5 -165.5t141.5 -59.5t145 60t61 165z" />
    <glyph glyph-name="guillemotright" unicode="&#xbb;" horiz-adv-x="1001" 
d="M719 246h-223l194 358l-194 359h223l190 -359zM326 246h-224l195 358l-195 359h224l190 -359z" />
    <glyph glyph-name="onequarter" unicode="&#xbc;" horiz-adv-x="1396" 
d="M129 0l784 1425h220l-783 -1425h-221zM1225 252h92v-115h-92v-137h-183v137h-380v103l309 483h254v-471zM844 252h203v332zM180 721v582h-110v139h292v-721h-182z" />
    <glyph glyph-name="onehalf" unicode="&#xbd;" horiz-adv-x="1435" 
d="M129 0l760 1425h221l-760 -1425h-221zM180 721v582h-110v139h292v-721h-182zM791 516q5 98 77.5 157.5t198.5 59.5q125 0 200.5 -69t75.5 -164q0 -74 -44 -131t-148 -127l-150 -97h345v-147h-551v135l221 162q67 52 101 97.5t34 99.5q0 46 -25.5 74t-64.5 28
q-37 0 -59 -21t-27 -57h-184z" />
    <glyph glyph-name="threequarters" unicode="&#xbe;" horiz-adv-x="1519" 
d="M285 0l823 1425h219l-823 -1425h-219zM1374 252h92v-115h-92v-137h-182v137h-381v103l309 483h254v-471zM993 252h203v332zM76 1247q8 93 88.5 151t206.5 58q120 0 203 -63t83 -152q0 -61 -34.5 -101.5t-90.5 -56.5v-4q57 -21 94.5 -63t37.5 -103q0 -87 -85.5 -144.5
t-216.5 -57.5q-130 0 -210 60t-84 165h180q7 -44 36.5 -67t75.5 -23q47 0 77 25t30 67q0 41 -30.5 64.5t-80.5 23.5h-75v119h69q51 0 81 22t30 64q0 40 -28 64t-77 24q-86 0 -106 -72h-174z" />
    <glyph glyph-name="questiondown" unicode="&#xbf;" horiz-adv-x="1101" 
d="M1020 113q2 -188 -122.5 -305t-332.5 -117t-334.5 115.5t-126.5 312.5q0 106 36 186.5t101.5 130t151.5 74.5t191 25l8 161h203l10 -321h-68q-75 0 -132 -6t-111 -22.5t-89 -44.5t-56 -74t-21 -109q0 -108 62.5 -170t172.5 -62t174 60t64 166h219zM549 999
q0 63 42.5 106.5t104.5 43.5q63 0 106.5 -43.5t43.5 -106.5t-43.5 -106t-106.5 -43q-62 0 -104.5 43t-42.5 106z" />
    <glyph glyph-name="Agrave" unicode="&#xc0;" horiz-adv-x="1427" 
d="M1114 0l-102 291h-596l-103 -291h-243l510 1425h270l510 -1425h-246zM473 1729v198l453 -250v-172zM946 481l-231 662l-234 -662h465z" />
    <glyph glyph-name="Aacute" unicode="&#xc1;" horiz-adv-x="1427" 
d="M1114 0l-102 291h-596l-103 -291h-243l510 1425h270l510 -1425h-246zM473 1677l453 250v-198l-453 -224v172zM946 481l-231 662l-234 -662h465z" />
    <glyph glyph-name="Acircumflex" unicode="&#xc2;" horiz-adv-x="1427" 
d="M1114 0l-102 291h-596l-103 -291h-243l510 1425h270l510 -1425h-246zM1008 1688v-183l-293 176l-293 -176v183l293 170zM946 481l-231 662l-234 -662h465z" />
    <glyph glyph-name="Atilde" unicode="&#xc3;" horiz-adv-x="1427" 
d="M1114 0l-102 291h-596l-103 -291h-243l510 1425h270l510 -1425h-246zM381 1542q17 118 78 179t153 61q47 0 89 -22.5t79 -45t70 -22.5q76 0 88 86h131q-17 -118 -78 -179t-153 -61q-47 0 -89 23t-79 46t-70 23q-35 0 -58.5 -22.5t-29.5 -65.5h-131zM946 481l-231 662
l-234 -662h465z" />
    <glyph glyph-name="Adieresis" unicode="&#xc4;" horiz-adv-x="1427" 
d="M1114 0l-102 291h-596l-103 -291h-243l510 1425h270l510 -1425h-246zM539 1567q-53 0 -88 35.5t-35 87.5q0 51 35.5 86.5t87.5 35.5q51 0 87 -35.5t36 -86.5q0 -52 -36 -87.5t-87 -35.5zM891 1567q-53 0 -88 35.5t-35 87.5q0 51 35.5 86.5t87.5 35.5q51 0 87 -35.5
t36 -86.5q0 -52 -36 -87.5t-87 -35.5zM946 481l-231 662l-234 -662h465z" />
    <glyph glyph-name="Aring" unicode="&#xc5;" horiz-adv-x="1427" 
d="M1114 0l-102 291h-596l-103 -291h-243l510 1425h270l510 -1425h-246zM715 1657q42 0 71 29.5t29 74.5q0 46 -29 75.5t-71 29.5q-41 0 -70 -29.5t-29 -75.5q0 -45 29 -74.5t70 -29.5zM715 1985q99 0 165 -62t66 -164q0 -101 -66 -162t-165 -61q-97 0 -163.5 61.5
t-66.5 161.5q0 101 66.5 163.5t163.5 62.5zM946 481l-231 662l-234 -662h465z" />
    <glyph glyph-name="AE" unicode="&#xc6;" horiz-adv-x="1886" 
d="M967 1264l-430 -791h430v791zM1751 1243h-551v-432h490v-180h-490v-449h551v-182h-784v291h-531l-157 -291h-254l784 1425h942v-182z" />
    <glyph glyph-name="Ccedilla" unicode="&#xc7;" horiz-adv-x="1583" 
d="M76 715q0 208 98 375.5t264 259.5t365 92q227 0 404 -111.5t257 -316.5h-280q-112 223 -381 223q-216 0 -352 -142t-136 -380t136.5 -381.5t351.5 -143.5q269 0 381 224h280q-73 -188 -229.5 -297t-360.5 -127v-88q118 0 192.5 -56.5t74.5 -158.5t-74 -163t-186 -61h-271
v148h224q58 0 86 16.5t28 59.5t-28 59t-86 16h-113v230q-135 14 -253.5 73t-205 152t-136.5 222t-50 276z" />
    <glyph glyph-name="Egrave" unicode="&#xc8;" horiz-adv-x="1073" 
d="M940 1425v-190h-553v-418h492v-190h-492v-437h553v-190h-786v1425h786zM295 1729v198l453 -250v-172z" />
    <glyph glyph-name="Eacute" unicode="&#xc9;" horiz-adv-x="1073" 
d="M940 1425v-190h-553v-418h492v-190h-492v-437h553v-190h-786v1425h786zM295 1677l453 250v-198l-453 -224v172z" />
    <glyph glyph-name="Ecircumflex" unicode="&#xca;" horiz-adv-x="1073" 
d="M940 1425v-190h-553v-418h492v-190h-492v-437h553v-190h-786v1425h786zM829 1688v-183l-292 176l-293 -176v183l293 170z" />
    <glyph glyph-name="Edieresis" unicode="&#xcb;" horiz-adv-x="1073" 
d="M940 1425v-190h-553v-418h492v-190h-492v-437h553v-190h-786v1425h786zM360 1567q-52 0 -87 35t-35 88q0 51 35 86.5t87 35.5q51 0 87 -35.5t36 -86.5q0 -52 -36 -87.5t-87 -35.5zM713 1567q-53 0 -88 35.5t-35 87.5q0 51 35.5 86.5t87.5 35.5q51 0 87 -35.5t36 -86.5
q0 -52 -36 -87.5t-87 -35.5z" />
    <glyph glyph-name="Igrave" unicode="&#xcc;" horiz-adv-x="540" 
d="M154 0v1423h233v-1423h-233zM29 1729v198l452 -250v-172z" />
    <glyph glyph-name="Iacute" unicode="&#xcd;" horiz-adv-x="540" 
d="M154 0v1423h233v-1423h-233zM29 1677l452 250v-198l-452 -224v172z" />
    <glyph glyph-name="Icircumflex" unicode="&#xce;" horiz-adv-x="540" 
d="M154 0v1423h233v-1423h-233zM563 1688v-183l-293 176l-293 -176v183l293 170z" />
    <glyph glyph-name="Idieresis" unicode="&#xcf;" horiz-adv-x="540" 
d="M154 0v1423h233v-1423h-233zM94 1567q-52 0 -87.5 35.5t-35.5 87.5q0 51 35.5 86.5t87.5 35.5q51 0 87 -35.5t36 -86.5q0 -52 -36 -87.5t-87 -35.5zM446 1567q-52 0 -87 35t-35 88q0 51 35 86.5t87 35.5q51 0 87 -35.5t36 -86.5q0 -52 -36 -87.5t-87 -35.5z" />
    <glyph glyph-name="Eth" unicode="&#xd0;" horiz-adv-x="1474" 
d="M643 1423q344 0 549 -193.5t205 -522.5q0 -327 -204.5 -517t-549.5 -190h-467v600h-158v215h158v608h467zM412 178h231q247 0 380.5 141t133.5 388q0 248 -133.5 388t-380.5 140h-231v-420h364v-215h-364v-422z" />
    <glyph glyph-name="Ntilde" unicode="&#xd1;" horiz-adv-x="1476" 
d="M1090 1425h233v-1425h-233l-703 1063v-1063h-233v1425h233l703 -1060v1060zM406 1542q17 118 78 179t153 61q37 0 72 -14t57.5 -31t51.5 -31t56 -14q35 0 59 21.5t30 64.5h131q-17 -118 -78.5 -179t-153.5 -61q-37 0 -72 14.5t-57.5 31.5t-51.5 31.5t-56 14.5
q-35 0 -58.5 -22.5t-29.5 -65.5h-131z" />
    <glyph glyph-name="Ograve" unicode="&#xd2;" horiz-adv-x="1605" 
d="M1530 715q0 -210 -97 -377.5t-262.5 -259.5t-367.5 -92q-199 0 -365 92t-264 260t-98 377q0 208 98 375.5t264 259.5t365 92q202 0 367.5 -92t262.5 -259t97 -376zM315 715q0 -239 136.5 -383t351.5 -144t351 144t136 383q0 238 -136 380t-351 142q-216 0 -352 -142
t-136 -380zM561 1729v198l453 -250v-172z" />
    <glyph glyph-name="Oacute" unicode="&#xd3;" horiz-adv-x="1605" 
d="M1530 715q0 -210 -97 -377.5t-262.5 -259.5t-367.5 -92q-199 0 -365 92t-264 260t-98 377q0 208 98 375.5t264 259.5t365 92q202 0 367.5 -92t262.5 -259t97 -376zM315 715q0 -239 136.5 -383t351.5 -144t351 144t136 383q0 238 -136 380t-351 142q-216 0 -352 -142
t-136 -380zM561 1677l453 250v-198l-453 -224v172z" />
    <glyph glyph-name="Ocircumflex" unicode="&#xd4;" horiz-adv-x="1605" 
d="M1530 715q0 -210 -97 -377.5t-262.5 -259.5t-367.5 -92q-199 0 -365 92t-264 260t-98 377q0 208 98 375.5t264 259.5t365 92q202 0 367.5 -92t262.5 -259t97 -376zM315 715q0 -239 136.5 -383t351.5 -144t351 144t136 383q0 238 -136 380t-351 142q-216 0 -352 -142
t-136 -380zM1096 1688v-183l-293 176l-293 -176v183l293 170z" />
    <glyph glyph-name="Otilde" unicode="&#xd5;" horiz-adv-x="1605" 
d="M1530 715q0 -210 -97 -377.5t-262.5 -259.5t-367.5 -92q-199 0 -365 92t-264 260t-98 377q0 208 98 375.5t264 259.5t365 92q202 0 367.5 -92t262.5 -259t97 -376zM315 715q0 -239 136.5 -383t351.5 -144t351 144t136 383q0 238 -136 380t-351 142q-216 0 -352 -142
t-136 -380zM469 1542q17 118 78 179t153 61q47 0 89 -22.5t79 -45t70 -22.5q76 0 88 86h131q-17 -118 -78 -179t-153 -61q-47 0 -89 23t-79 46t-70 23q-35 0 -58.5 -22.5t-29.5 -65.5h-131z" />
    <glyph glyph-name="Odieresis" unicode="&#xd6;" horiz-adv-x="1605" 
d="M1530 715q0 -210 -97 -377.5t-262.5 -259.5t-367.5 -92q-199 0 -365 92t-264 260t-98 377q0 208 98 375.5t264 259.5t365 92q202 0 367.5 -92t262.5 -259t97 -376zM315 715q0 -239 136.5 -383t351.5 -144t351 144t136 383q0 238 -136 380t-351 142q-216 0 -352 -142
t-136 -380zM627 1567q-53 0 -88 35.5t-35 87.5q0 51 35.5 86.5t87.5 35.5q51 0 87 -35.5t36 -86.5q0 -52 -36 -87.5t-87 -35.5zM979 1567q-53 0 -88 35.5t-35 87.5q0 51 35.5 86.5t87.5 35.5q51 0 87 -35.5t36 -86.5q0 -52 -36 -87.5t-87 -35.5z" />
    <glyph glyph-name="multiply" unicode="&#xd7;" horiz-adv-x="1431" 
d="M406 283l-154 153l313 312l-305 305l150 149l305 -305l305 305l154 -153l-306 -306l310 -311l-150 -149l-311 311z" />
    <glyph glyph-name="Oslash" unicode="&#xd8;" horiz-adv-x="1605" 
d="M1530 715q0 -210 -97 -377.5t-262.5 -259.5t-367.5 -92q-254 0 -445 143l-118 -129h-187l205 221q-182 205 -182 494q0 208 98 375.5t264 259.5t365 92q253 0 446 -144l117 127h186l-202 -219q180 -202 180 -491zM315 715q0 -188 95 -330l694 756q-129 96 -301 96
q-216 0 -352 -142t-136 -380zM803 188q215 0 351 144t136 383q0 191 -92 325l-694 -753q126 -99 299 -99z" />
    <glyph glyph-name="Ugrave" unicode="&#xd9;" horiz-adv-x="1413" 
d="M152 520v903h233v-907q0 -162 85 -244t237 -82q153 0 238 82t85 244v907h234v-903q0 -132 -45 -235.5t-123.5 -168t-177.5 -97.5t-213 -33t-213 33t-175.5 97.5t-120.5 168t-44 235.5zM465 1729v198l453 -250v-172z" />
    <glyph glyph-name="Uacute" unicode="&#xda;" horiz-adv-x="1413" 
d="M152 520v903h233v-907q0 -162 85 -244t237 -82q153 0 238 82t85 244v907h234v-903q0 -132 -45 -235.5t-123.5 -168t-177.5 -97.5t-213 -33t-213 33t-175.5 97.5t-120.5 168t-44 235.5zM465 1677l453 250v-198l-453 -224v172z" />
    <glyph glyph-name="Ucircumflex" unicode="&#xdb;" horiz-adv-x="1413" 
d="M152 520v903h233v-907q0 -162 85 -244t237 -82q153 0 238 82t85 244v907h234v-903q0 -132 -45 -235.5t-123.5 -168t-177.5 -97.5t-213 -33t-213 33t-175.5 97.5t-120.5 168t-44 235.5zM999 1688v-183l-292 176l-293 -176v183l293 170z" />
    <glyph glyph-name="Udieresis" unicode="&#xdc;" horiz-adv-x="1413" 
d="M152 520v903h233v-907q0 -162 85 -244t237 -82q153 0 238 82t85 244v907h234v-903q0 -132 -45 -235.5t-123.5 -168t-177.5 -97.5t-213 -33t-213 33t-175.5 97.5t-120.5 168t-44 235.5zM530 1567q-52 0 -87 35t-35 88q0 51 35 86.5t87 35.5q51 0 87 -35.5t36 -86.5
q0 -52 -36 -87.5t-87 -35.5zM883 1567q-53 0 -88 35.5t-35 87.5q0 51 35.5 86.5t87.5 35.5q51 0 87 -35.5t36 -86.5q0 -52 -36 -87.5t-87 -35.5z" />
    <glyph glyph-name="Yacute" unicode="&#xdd;" horiz-adv-x="1239" 
d="M504 516l-473 907h260l330 -698l329 698h258l-471 -907v-516h-233v516zM379 1677l452 250v-198l-452 -224v172z" />
    <glyph glyph-name="Thorn" unicode="&#xde;" horiz-adv-x="1218" 
d="M387 473h258q132 0 198 64t66 176q0 113 -66 177t-198 64h-258v-481zM1149 713q0 -63 -16.5 -122t-54.5 -114t-95 -96t-143.5 -65.5t-194.5 -24.5h-258v-291h-233v1425h231v-288h260q123 0 220.5 -33.5t158.5 -92t93 -134.5t32 -164z" />
    <glyph glyph-name="germandbls" unicode="&#xdf;" horiz-adv-x="1431" 
d="M111 0v1151q0 90 30 166.5t89.5 136.5t159 94.5t228.5 34.5q113 0 205 -30t149 -80t87.5 -112.5t30.5 -129.5q0 -72 -28.5 -133.5t-69 -102t-81.5 -74.5t-69.5 -64.5t-28.5 -57.5q0 -37 44 -67t171 -73q154 -52 223.5 -134.5t69.5 -207.5q0 -152 -110.5 -244.5
t-303.5 -92.5q-187 0 -303 98t-129 276h238q3 -88 52.5 -138t141.5 -50q174 0 174 133q0 67 -40 107t-146 75q-167 56 -242 120.5t-75 164.5q0 48 20.5 93t51.5 77.5t67 67.5t67 64.5t51.5 67t20.5 76.5q0 84 -65 130.5t-177 46.5q-146 0 -208 -67.5t-62 -201.5v-1120h-233z
" />
    <glyph glyph-name="agrave" unicode="&#xe0;" horiz-adv-x="1388" 
d="M76 569q0 128 41.5 237t113 183t169 116t208.5 42q132 0 232 -52t159 -130v163h236v-1128h-236v168q-60 -80 -161.5 -133t-233.5 -53q-146 0 -266 73.5t-191 208.5t-71 305zM999 565q0 88 -28.5 161t-76.5 120t-109 72.5t-128 25.5q-139 0 -240.5 -100.5t-101.5 -274.5
q0 -175 102 -280t240 -105q67 0 128 25.5t109 73t76.5 120.5t28.5 162zM453 1432v198l452 -250v-172z" />
    <glyph glyph-name="aacute" unicode="&#xe1;" horiz-adv-x="1388" 
d="M76 569q0 128 41.5 237t113 183t169 116t208.5 42q132 0 232 -52t159 -130v163h236v-1128h-236v168q-60 -80 -161.5 -133t-233.5 -53q-146 0 -266 73.5t-191 208.5t-71 305zM999 565q0 88 -28.5 161t-76.5 120t-109 72.5t-128 25.5q-139 0 -240.5 -100.5t-101.5 -274.5
q0 -175 102 -280t240 -105q67 0 128 25.5t109 73t76.5 120.5t28.5 162zM453 1380l452 250v-198l-452 -224v172z" />
    <glyph glyph-name="acircumflex" unicode="&#xe2;" horiz-adv-x="1388" 
d="M76 569q0 128 41.5 237t113 183t169 116t208.5 42q132 0 232 -52t159 -130v163h236v-1128h-236v168q-60 -80 -161.5 -133t-233.5 -53q-146 0 -266 73.5t-191 208.5t-71 305zM999 565q0 88 -28.5 161t-76.5 120t-109 72.5t-128 25.5q-139 0 -240.5 -100.5t-101.5 -274.5
q0 -175 102 -280t240 -105q67 0 128 25.5t109 73t76.5 120.5t28.5 162zM987 1391v-183l-293 176l-293 -176v183l293 170z" />
    <glyph glyph-name="atilde" unicode="&#xe3;" horiz-adv-x="1388" 
d="M76 569q0 128 41.5 237t113 183t169 116t208.5 42q132 0 232 -52t159 -130v163h236v-1128h-236v168q-60 -80 -161.5 -133t-233.5 -53q-146 0 -266 73.5t-191 208.5t-71 305zM999 565q0 88 -28.5 161t-76.5 120t-109 72.5t-128 25.5q-139 0 -240.5 -100.5t-101.5 -274.5
q0 -175 102 -280t240 -105q67 0 128 25.5t109 73t76.5 120.5t28.5 162zM360 1245q17 118 78.5 179t153.5 61q37 0 72 -14t57.5 -31t51.5 -31t56 -14q35 0 59 21.5t30 64.5h131q-17 -118 -78.5 -179t-153.5 -61q-37 0 -72 14.5t-57.5 31.5t-51.5 31.5t-56 14.5
q-35 0 -58.5 -22.5t-29.5 -65.5h-132z" />
    <glyph glyph-name="adieresis" unicode="&#xe4;" horiz-adv-x="1388" 
d="M76 569q0 128 41.5 237t113 183t169 116t208.5 42q132 0 232 -52t159 -130v163h236v-1128h-236v168q-60 -80 -161.5 -133t-233.5 -53q-146 0 -266 73.5t-191 208.5t-71 305zM999 565q0 88 -28.5 161t-76.5 120t-109 72.5t-128 25.5q-139 0 -240.5 -100.5t-101.5 -274.5
q0 -175 102 -280t240 -105q67 0 128 25.5t109 73t76.5 120.5t28.5 162zM518 1270q-52 0 -87.5 35t-35.5 88q0 51 35.5 87t87.5 36q51 0 87 -36t36 -87q0 -52 -36 -87.5t-87 -35.5zM870 1270q-52 0 -87 35t-35 88q0 51 35 87t87 36q51 0 87 -36t36 -87q0 -52 -36 -87.5
t-87 -35.5z" />
    <glyph glyph-name="aring" unicode="&#xe5;" horiz-adv-x="1388" 
d="M76 569q0 128 41.5 237t113 183t169 116t208.5 42q132 0 232 -52t159 -130v163h236v-1128h-236v168q-60 -80 -161.5 -133t-233.5 -53q-146 0 -266 73.5t-191 208.5t-71 305zM999 565q0 88 -28.5 161t-76.5 120t-109 72.5t-128 25.5q-139 0 -240.5 -100.5t-101.5 -274.5
q0 -175 102 -280t240 -105q67 0 128 25.5t109 73t76.5 120.5t28.5 162zM694 1688q99 0 165.5 -62t66.5 -164q0 -100 -66.5 -161.5t-165.5 -61.5q-97 0 -163 61.5t-66 161.5q0 102 66 164t163 62zM694 1360q42 0 71.5 29.5t29.5 74.5q0 46 -29.5 75.5t-71.5 29.5
q-41 0 -69.5 -29.5t-28.5 -75.5q0 -45 28.5 -74.5t69.5 -29.5z" />
    <glyph glyph-name="ae" unicode="&#xe6;" horiz-adv-x="2222" 
d="M1577 950q-128 0 -223 -82t-115 -215h666q-3 133 -95.5 215t-232.5 82zM2116 336q-50 -156 -181 -255t-319 -99q-124 0 -232.5 52t-175.5 136v-170h-200v170q-69 -84 -172.5 -136t-227.5 -52q-226 0 -379 165t-153 422t155 417.5t390 160.5q246 0 393 -178v159h194v-159
q86 95 184.5 136.5t223.5 41.5q234 0 382 -155.5t148 -395.5q0 -59 -8 -111h-899q12 -97 65.5 -168.5t124 -105t146.5 -33.5q112 0 185 43t102 115h254zM315 569q0 -175 102 -280t240 -105q67 0 128 25.5t109 73t76.5 120.5t28.5 162q0 88 -28.5 161t-76.5 120t-109 72.5
t-128 25.5q-139 0 -240.5 -100.5t-101.5 -274.5z" />
    <glyph glyph-name="ccedilla" unicode="&#xe7;" horiz-adv-x="1228" 
d="M76 565q0 262 154 422t399 160q205 0 338.5 -97.5t181.5 -277.5h-252q-30 84 -98 131t-170 47q-143 0 -228.5 -101.5t-85.5 -283.5q0 -183 85.5 -285t228.5 -102q203 0 268 178h252q-44 -156 -160 -254.5t-291 -115.5v-84q118 0 192.5 -56.5t74.5 -158.5t-74 -163
t-186 -61h-271v148h223q58 0 86.5 16.5t28.5 59.5t-28 59t-87 16h-112v226q-212 27 -340.5 182t-128.5 395z" />
    <glyph glyph-name="egrave" unicode="&#xe8;" horiz-adv-x="1263" 
d="M629 950q-121 0 -206.5 -76.5t-103.5 -207.5h625q-3 128 -92.5 206t-222.5 78zM1157 336q-50 -156 -185 -255t-333 -99q-246 0 -404.5 160.5t-158.5 422.5q0 264 155.5 423t407.5 159q243 0 396 -153.5t153 -401.5q0 -63 -8 -115h-863q12 -137 101.5 -218t220.5 -81
q189 0 266 158h252zM391 1432v198l453 -250v-172z" />
    <glyph glyph-name="eacute" unicode="&#xe9;" horiz-adv-x="1263" 
d="M629 950q-121 0 -206.5 -76.5t-103.5 -207.5h625q-3 128 -92.5 206t-222.5 78zM1157 336q-50 -156 -185 -255t-333 -99q-246 0 -404.5 160.5t-158.5 422.5q0 264 155.5 423t407.5 159q243 0 396 -153.5t153 -401.5q0 -63 -8 -115h-863q12 -137 101.5 -218t220.5 -81
q189 0 266 158h252zM391 1380l453 250v-198l-453 -224v172z" />
    <glyph glyph-name="ecircumflex" unicode="&#xea;" horiz-adv-x="1263" 
d="M629 950q-121 0 -206.5 -76.5t-103.5 -207.5h625q-3 128 -92.5 206t-222.5 78zM1157 336q-50 -156 -185 -255t-333 -99q-246 0 -404.5 160.5t-158.5 422.5q0 264 155.5 423t407.5 159q243 0 396 -153.5t153 -401.5q0 -63 -8 -115h-863q12 -137 101.5 -218t220.5 -81
q189 0 266 158h252zM926 1391v-183l-293 176l-293 -176v183l293 170z" />
    <glyph glyph-name="edieresis" unicode="&#xeb;" horiz-adv-x="1263" 
d="M629 950q-121 0 -206.5 -76.5t-103.5 -207.5h625q-3 128 -92.5 206t-222.5 78zM1157 336q-50 -156 -185 -255t-333 -99q-246 0 -404.5 160.5t-158.5 422.5q0 264 155.5 423t407.5 159q243 0 396 -153.5t153 -401.5q0 -63 -8 -115h-863q12 -137 101.5 -218t220.5 -81
q189 0 266 158h252zM457 1270q-53 0 -88 35t-35 88q0 51 35.5 87t87.5 36q51 0 87 -36t36 -87q0 -52 -36 -87.5t-87 -35.5zM809 1270q-53 0 -88 35t-35 88q0 51 35.5 87t87.5 36q51 0 87 -36t36 -87q0 -52 -36 -87.5t-87 -35.5z" />
    <glyph glyph-name="igrave" unicode="&#xec;" horiz-adv-x="540" 
d="M154 0v1128h233v-1128h-233zM29 1432v198l452 -250v-172z" />
    <glyph glyph-name="iacute" unicode="&#xed;" horiz-adv-x="540" 
d="M154 0v1128h233v-1128h-233zM29 1380l452 250v-198l-452 -224v172z" />
    <glyph glyph-name="icircumflex" unicode="&#xee;" horiz-adv-x="540" 
d="M154 0v1128h233v-1128h-233zM563 1391v-183l-293 176l-293 -176v183l293 170z" />
    <glyph glyph-name="idieresis" unicode="&#xef;" horiz-adv-x="540" 
d="M154 0v1128h233v-1128h-233zM94 1270q-52 0 -87.5 35t-35.5 88q0 51 35.5 87t87.5 36q51 0 87 -36t36 -87q0 -52 -36 -87.5t-87 -35.5zM446 1270q-52 0 -87 35t-35 88q0 51 35 87t87 36q51 0 87 -36t36 -87q0 -52 -36 -87.5t-87 -35.5z" />
    <glyph glyph-name="eth" unicode="&#xf0;" horiz-adv-x="1302" 
d="M541 1329l161 53q-76 73 -151 134h237q44 -38 84 -78l256 84v-125l-165 -56q264 -312 264 -692q0 -162 -44.5 -290t-123.5 -210t-184.5 -124.5t-231.5 -42.5q-121 0 -225.5 41.5t-180 116.5t-118.5 185t-43 240t43.5 240t118.5 184.5t176 116t215 41.5q186 0 325 -117
q-59 137 -161 256l-252 -82v125zM315 565q0 -184 94 -285.5t234 -101.5q66 0 127 25t110 72t78 122t29 168q0 182 -99.5 283.5t-240.5 101.5q-139 0 -235.5 -101t-96.5 -284z" />
    <glyph glyph-name="ntilde" unicode="&#xf1;" horiz-adv-x="1329" 
d="M387 631v-631h-233v1128h233v-129q57 69 146 108.5t190 39.5q205 0 334 -126t129 -355v-666h-232v631q0 152 -75.5 232.5t-206.5 80.5q-132 0 -208.5 -80.5t-76.5 -232.5zM352 1245q17 118 78.5 179t153.5 61q37 0 72 -14t57.5 -31t51.5 -31t56 -14q76 0 88 86h131
q-17 -118 -78 -179t-153 -61q-47 0 -89 23t-79 46t-70 23q-35 0 -58.5 -22.5t-29.5 -65.5h-131z" />
    <glyph glyph-name="ograve" unicode="&#xf2;" horiz-adv-x="1306" 
d="M1229 565q0 -173 -79 -307t-212 -205t-295 -71q-120 0 -224 41.5t-179.5 116.5t-118.5 185t-43 240t44.5 240t122 184.5t183 116t225.5 41.5q161 0 291.5 -70.5t207.5 -204.5t77 -307zM315 565q0 -183 94 -282t234 -99q67 0 128 24t110 70t78.5 120t29.5 167t-28.5 167
t-76.5 119t-108 69t-127 24q-141 0 -237.5 -98.5t-96.5 -280.5zM412 1450v199l452 -250v-172z" />
    <glyph glyph-name="oacute" unicode="&#xf3;" horiz-adv-x="1306" 
d="M1229 565q0 -173 -79 -307t-212 -205t-295 -71q-120 0 -224 41.5t-179.5 116.5t-118.5 185t-43 240t44.5 240t122 184.5t183 116t225.5 41.5q161 0 291.5 -70.5t207.5 -204.5t77 -307zM315 565q0 -183 94 -282t234 -99q67 0 128 24t110 70t78.5 120t29.5 167t-28.5 167
t-76.5 119t-108 69t-127 24q-141 0 -237.5 -98.5t-96.5 -280.5zM412 1399l452 250v-199l-452 -223v172z" />
    <glyph glyph-name="ocircumflex" unicode="&#xf4;" horiz-adv-x="1306" 
d="M1229 565q0 -173 -79 -307t-212 -205t-295 -71q-120 0 -224 41.5t-179.5 116.5t-118.5 185t-43 240t44.5 240t122 184.5t183 116t225.5 41.5q161 0 291.5 -70.5t207.5 -204.5t77 -307zM315 565q0 -183 94 -282t234 -99q67 0 128 24t110 70t78.5 120t29.5 167t-28.5 167
t-76.5 119t-108 69t-127 24q-141 0 -237.5 -98.5t-96.5 -280.5zM946 1409v-182l-293 176l-293 -176v182l293 170z" />
    <glyph glyph-name="otilde" unicode="&#xf5;" horiz-adv-x="1306" 
d="M1229 565q0 -173 -79 -307t-212 -205t-295 -71q-120 0 -224 41.5t-179.5 116.5t-118.5 185t-43 240t44.5 240t122 184.5t183 116t225.5 41.5q161 0 291.5 -70.5t207.5 -204.5t77 -307zM315 565q0 -183 94 -282t234 -99q67 0 128 24t110 70t78.5 120t29.5 167t-28.5 167
t-76.5 119t-108 69t-127 24q-141 0 -237.5 -98.5t-96.5 -280.5zM319 1264q17 118 78.5 178.5t153.5 60.5q37 0 72 -14t57.5 -31t51.5 -31t56 -14q35 0 59 21.5t30 64.5h131q-17 -118 -78.5 -178.5t-153.5 -60.5q-37 0 -72 14.5t-57.5 31.5t-51.5 31.5t-56 14.5
q-35 0 -58.5 -22.5t-29.5 -65.5h-132z" />
    <glyph glyph-name="odieresis" unicode="&#xf6;" horiz-adv-x="1306" 
d="M1229 565q0 -173 -79 -307t-212 -205t-295 -71q-120 0 -224 41.5t-179.5 116.5t-118.5 185t-43 240t44.5 240t122 184.5t183 116t225.5 41.5q161 0 291.5 -70.5t207.5 -204.5t77 -307zM315 565q0 -183 94 -282t234 -99q67 0 128 24t110 70t78.5 120t29.5 167t-28.5 167
t-76.5 119t-108 69t-127 24q-141 0 -237.5 -98.5t-96.5 -280.5zM477 1288q-53 0 -88 35t-35 88q0 51 35.5 87t87.5 36q51 0 87 -36t36 -87q0 -52 -36 -87.5t-87 -35.5zM829 1288q-52 0 -87 35t-35 88q0 51 35 87t87 36q51 0 87 -36t36 -87q0 -52 -36 -87.5t-87 -35.5z" />
    <glyph glyph-name="divide" unicode="&#xf7;" horiz-adv-x="1390" 
d="M184 643v197h1045v-197h-1045zM858 303q0 -63 -42.5 -106t-104.5 -43q-63 0 -106.5 43t-43.5 106t43.5 106.5t106.5 43.5q62 0 104.5 -43.5t42.5 -106.5zM858 1184q0 -63 -42.5 -106.5t-104.5 -43.5q-63 0 -106.5 43.5t-43.5 106.5t43.5 106t106.5 43q62 0 104.5 -43
t42.5 -106z" />
    <glyph glyph-name="oslash" unicode="&#xf8;" horiz-adv-x="1306" 
d="M1229 565q0 -173 -79 -307t-212 -205t-295 -71q-199 0 -342 106l-82 -88h-162l156 170q-135 157 -135 395q0 130 44.5 240t122 184.5t183 116t225.5 41.5q202 0 351 -109l83 90h162l-157 -172q137 -156 137 -391zM315 565q0 -128 54 -225l487 534q-88 70 -207 70
q-141 0 -237.5 -98.5t-96.5 -280.5zM643 184q67 0 128 24t110 70t78.5 120t29.5 167q0 127 -53 219l-490 -536q82 -64 197 -64z" />
    <glyph glyph-name="ugrave" unicode="&#xf9;" horiz-adv-x="1329" 
d="M1176 1128v-1128h-234v135q-55 -71 -144 -111t-190 -40q-100 0 -184.5 31.5t-147 90.5t-98 151.5t-35.5 207.5v663h232v-628q0 -152 76 -233t206 -81q132 0 208.5 81t76.5 233v628h234zM424 1432v198l453 -250v-172z" />
    <glyph glyph-name="uacute" unicode="&#xfa;" horiz-adv-x="1329" 
d="M1176 1128v-1128h-234v135q-55 -71 -144 -111t-190 -40q-100 0 -184.5 31.5t-147 90.5t-98 151.5t-35.5 207.5v663h232v-628q0 -152 76 -233t206 -81q132 0 208.5 81t76.5 233v628h234zM424 1380l453 250v-198l-453 -224v172z" />
    <glyph glyph-name="ucircumflex" unicode="&#xfb;" horiz-adv-x="1329" 
d="M1176 1128v-1128h-234v135q-55 -71 -144 -111t-190 -40q-100 0 -184.5 31.5t-147 90.5t-98 151.5t-35.5 207.5v663h232v-628q0 -152 76 -233t206 -81q132 0 208.5 81t76.5 233v628h234zM958 1391v-183l-292 176l-293 -176v183l293 170z" />
    <glyph glyph-name="udieresis" unicode="&#xfc;" horiz-adv-x="1329" 
d="M1176 1128v-1128h-234v135q-55 -71 -144 -111t-190 -40q-100 0 -184.5 31.5t-147 90.5t-98 151.5t-35.5 207.5v663h232v-628q0 -152 76 -233t206 -81q132 0 208.5 81t76.5 233v628h234zM489 1270q-52 0 -87 35t-35 88q0 51 35 87t87 36q51 0 87 -36t36 -87
q0 -52 -36 -87.5t-87 -35.5zM842 1270q-52 0 -87.5 35t-35.5 88q0 51 35.5 87t87.5 36q51 0 87 -36t36 -87q0 -52 -36 -87.5t-87 -35.5z" />
    <glyph glyph-name="yacute" unicode="&#xfd;" horiz-adv-x="1191" 
d="M598 268l330 860h241l-692 -1658h-241l229 548l-445 1110h261zM354 1380l453 250v-198l-453 -224v172z" />
    <glyph glyph-name="thorn" unicode="&#xfe;" horiz-adv-x="1388" 
d="M387 928q57 99 158 159t235 60q148 0 268.5 -71t191.5 -204t71 -303q0 -128 -41.5 -238t-112.5 -186.5t-169 -119.5t-208 -43q-133 0 -233.5 62.5t-159.5 166.5v-748h-233v2053h233v-588zM1073 569q0 174 -101.5 274.5t-242.5 100.5q-139 0 -240.5 -103t-101.5 -276
q0 -89 29 -162t77 -120.5t109 -73t127 -25.5q67 0 128.5 26.5t109.5 74t77 121.5t29 163z" />
    <glyph glyph-name="ydieresis" unicode="&#xff;" horiz-adv-x="1191" 
d="M598 268l330 860h241l-692 -1658h-241l229 548l-445 1110h261zM420 1270q-52 0 -87.5 35t-35.5 88q0 51 35.5 87t87.5 36q51 0 87 -36t36 -87q0 -52 -36 -87.5t-87 -35.5zM772 1270q-52 0 -87.5 35t-35.5 88q0 51 35.5 87t87.5 36q51 0 87 -36t36 -87q0 -52 -36 -87.5
t-87 -35.5z" />
    <glyph glyph-name="Amacron" unicode="&#x100;" horiz-adv-x="1427" 
d="M1114 0l-102 291h-596l-103 -291h-243l510 1425h270l510 -1425h-246zM340 1597v175h750v-175h-750zM946 481l-231 662l-234 -662h465z" />
    <glyph glyph-name="amacron" unicode="&#x101;" horiz-adv-x="1388" 
d="M76 569q0 128 41.5 237t113 183t169 116t208.5 42q132 0 232 -52t159 -130v163h236v-1128h-236v168q-60 -80 -161.5 -133t-233.5 -53q-146 0 -266 73.5t-191 208.5t-71 305zM999 565q0 88 -28.5 161t-76.5 120t-109 72.5t-128 25.5q-139 0 -240.5 -100.5t-101.5 -274.5
q0 -175 102 -280t240 -105q67 0 128 25.5t109 73t76.5 120.5t28.5 162zM319 1300v175h750v-175h-750z" />
    <glyph glyph-name="Abreve" unicode="&#x102;" horiz-adv-x="1427" 
d="M1114 0l-102 291h-596l-103 -291h-243l510 1425h270l510 -1425h-246zM1024 1804q0 -129 -82.5 -206.5t-226.5 -77.5q-143 0 -225 78.5t-82 207.5v43h133q0 -73 39.5 -110t134.5 -37t134.5 37t39.5 110h135v-45zM946 481l-231 662l-234 -662h465z" />
    <glyph glyph-name="abreve" unicode="&#x103;" horiz-adv-x="1388" 
d="M76 569q0 128 41.5 237t113 183t169 116t208.5 42q132 0 232 -52t159 -130v163h236v-1128h-236v168q-60 -80 -161.5 -133t-233.5 -53q-146 0 -266 73.5t-191 208.5t-71 305zM999 565q0 88 -28.5 161t-76.5 120t-109 72.5t-128 25.5q-139 0 -240.5 -100.5t-101.5 -274.5
q0 -175 102 -280t240 -105q67 0 128 25.5t109 73t76.5 120.5t28.5 162zM1004 1507q0 -129 -82.5 -206.5t-227.5 -77.5q-143 0 -225 78.5t-82 207.5v43h133q0 -73 39.5 -110t134.5 -37t134.5 37t39.5 110h136v-45z" />
    <glyph glyph-name="Aogonek" unicode="&#x104;" horiz-adv-x="1427" 
d="M580 1425h270l510 -1425l-100 -51q-64 -33 -90.5 -65t-26.5 -70q0 -43 30 -69t82 -26q60 0 136 29v-149q-81 -31 -166 -31q-51 0 -97.5 12t-87 36.5t-64.5 69t-24 103.5q0 136 154 234l-94 268h-596l-103 -291h-243zM946 481l-231 662l-234 -662h465z" />
    <glyph glyph-name="aogonek" unicode="&#x105;" horiz-adv-x="1388" 
d="M76 569q0 128 41.5 237t113 183t169 116t208.5 42q132 0 232 -52t159 -130v163h236v-1128l-100 -51q-64 -33 -90.5 -65t-26.5 -70q0 -43 30 -69t82 -26q60 0 136 29v-149q-81 -31 -166 -31q-51 0 -97.5 12t-87 36.5t-64.5 69t-24 103.5q0 142 172 244v135
q-60 -80 -161.5 -133t-233.5 -53q-146 0 -266 73.5t-191 208.5t-71 305zM999 565q0 88 -28.5 161t-76.5 120t-109 72.5t-128 25.5q-139 0 -240.5 -100.5t-101.5 -274.5q0 -175 102 -280t240 -105q67 0 128 25.5t109 73t76.5 120.5t28.5 162z" />
    <glyph glyph-name="Cacute" unicode="&#x106;" horiz-adv-x="1583" 
d="M76 715q0 208 98 375.5t264 259.5t365 92q227 0 404 -111.5t257 -316.5h-280q-112 223 -381 223q-216 0 -352 -142t-136 -380t136.5 -381.5t351.5 -143.5q269 0 381 224h280q-80 -205 -256.5 -315.5t-404.5 -110.5q-200 0 -365.5 91.5t-263.5 259t-98 376.5zM561 1694
l453 250v-199l-453 -223v172z" />
    <glyph glyph-name="cacute" unicode="&#x107;" horiz-adv-x="1228" 
d="M76 565q0 262 154 422t399 160q205 0 338.5 -97.5t181.5 -277.5h-252q-30 84 -98 131t-170 47q-143 0 -228.5 -101.5t-85.5 -283.5q0 -183 85.5 -285t228.5 -102q203 0 268 178h252q-49 -171 -184 -272.5t-336 -101.5q-245 0 -399 160t-154 423zM373 1380l452 250v-198
l-452 -224v172z" />
    <glyph glyph-name="Cdotaccent" unicode="&#x10a;" horiz-adv-x="1583" 
d="M76 715q0 208 98 375.5t264 259.5t365 92q227 0 404 -111.5t257 -316.5h-280q-112 223 -381 223q-216 0 -352 -142t-136 -380t136.5 -381.5t351.5 -143.5q269 0 381 224h280q-80 -205 -256.5 -315.5t-404.5 -110.5q-200 0 -365.5 91.5t-263.5 259t-98 376.5zM803 1583
q-53 0 -88 35.5t-35 87.5q0 51 35.5 87t87.5 36q51 0 87 -36t36 -87q0 -52 -36 -87.5t-87 -35.5z" />
    <glyph glyph-name="cdotaccent" unicode="&#x10b;" horiz-adv-x="1228" 
d="M76 565q0 262 154 422t399 160q205 0 338.5 -97.5t181.5 -277.5h-252q-30 84 -98 131t-170 47q-143 0 -228.5 -101.5t-85.5 -283.5q0 -183 85.5 -285t228.5 -102q203 0 268 178h252q-49 -171 -184 -272.5t-336 -101.5q-245 0 -399 160t-154 423zM614 1270q-52 0 -87 35
t-35 88q0 51 35 87t87 36q51 0 87 -36t36 -87q0 -52 -36 -87.5t-87 -35.5z" />
    <glyph glyph-name="Ccaron" unicode="&#x10c;" horiz-adv-x="1583" 
d="M76 715q0 208 98 375.5t264 259.5t365 92q227 0 404 -111.5t257 -316.5h-280q-112 223 -381 223q-216 0 -352 -142t-136 -380t136.5 -381.5t351.5 -143.5q269 0 381 224h280q-80 -205 -256.5 -315.5t-404.5 -110.5q-200 0 -365.5 91.5t-263.5 259t-98 376.5zM803 1698
l293 176v-182l-293 -170l-293 170v182z" />
    <glyph glyph-name="ccaron" unicode="&#x10d;" horiz-adv-x="1228" 
d="M76 565q0 262 154 422t399 160q205 0 338.5 -97.5t181.5 -277.5h-252q-30 84 -98 131t-170 47q-143 0 -228.5 -101.5t-85.5 -283.5q0 -183 85.5 -285t228.5 -102q203 0 268 178h252q-49 -171 -184 -272.5t-336 -101.5q-245 0 -399 160t-154 423zM614 1384l293 177v-183
l-293 -170l-292 170v183z" />
    <glyph glyph-name="Dcaron" unicode="&#x10e;" horiz-adv-x="1452" 
d="M618 1423q344 0 550 -193.5t206 -522.5q0 -216 -93.5 -376.5t-264.5 -245.5t-398 -85h-464v1423h464zM387 190h231q250 0 383.5 136t133.5 381q0 247 -134 386.5t-383 139.5h-231v-1043zM727 1681l293 177v-183l-293 -170l-293 170v183z" />
    <glyph glyph-name="dcaron" unicode="&#x10f;" horiz-adv-x="1599" 
d="M1339 1516h211q29 -122 29 -205q0 -254 -231 -254v102q100 0 100 115v43h-109v199zM76 569q0 128 41.5 237t113 183t170 116t209.5 42q110 0 217.5 -48.5t171.5 -127.5v545h236v-1516h-236v170q-58 -83 -159.5 -135.5t-231.5 -52.5q-226 0 -379 165t-153 422zM999 565
q0 88 -28.5 161t-76.5 120t-109 72.5t-128 25.5q-139 0 -240.5 -100.5t-101.5 -274.5q0 -175 102 -280t240 -105q67 0 128 25.5t109 73t76.5 120.5t28.5 162z" />
    <glyph glyph-name="Dcroat" unicode="&#x110;" horiz-adv-x="1474" 
d="M643 1423q344 0 549 -193.5t205 -522.5q0 -327 -204.5 -517t-549.5 -190h-467v600h-158v215h158v608h467zM412 178h231q247 0 380.5 141t133.5 388q0 248 -133.5 388t-380.5 140h-231v-420h364v-215h-364v-422z" />
    <glyph glyph-name="dcroat" unicode="&#x111;" horiz-adv-x="1388" 
d="M76 569q0 128 41.5 237t113 183t170 116t209.5 42q110 0 217.5 -48.5t171.5 -127.5v237h-168v135h168v173h236v-173h121v-135h-121v-1208h-236v170q-58 -83 -159.5 -135.5t-231.5 -52.5q-226 0 -379 165t-153 422zM999 565q0 88 -28.5 161t-76.5 120t-109 72.5t-128 25.5
q-139 0 -240.5 -100.5t-101.5 -274.5q0 -175 102 -280t240 -105q67 0 128 25.5t109 73t76.5 120.5t28.5 162z" />
    <glyph glyph-name="Emacron" unicode="&#x112;" horiz-adv-x="1073" 
d="M940 1425v-190h-553v-418h492v-190h-492v-437h553v-190h-786v1425h786zM162 1597v175h749v-175h-749z" />
    <glyph glyph-name="emacron" unicode="&#x113;" horiz-adv-x="1263" 
d="M629 950q-121 0 -206.5 -76.5t-103.5 -207.5h625q-3 128 -92.5 206t-222.5 78zM1157 336q-50 -156 -185 -255t-333 -99q-246 0 -404.5 160.5t-158.5 422.5q0 264 155.5 423t407.5 159q243 0 396 -153.5t153 -401.5q0 -63 -8 -115h-863q12 -137 101.5 -218t220.5 -81
q189 0 266 158h252zM258 1300v175h750v-175h-750z" />
    <glyph glyph-name="Ebreve" unicode="&#x114;" horiz-adv-x="1073" 
d="M940 1425v-190h-553v-418h492v-190h-492v-437h553v-190h-786v1425h786zM846 1804q0 -129 -82.5 -206.5t-226.5 -77.5q-143 0 -225.5 78.5t-82.5 207.5v43h133q0 -73 40 -110t135 -37t134.5 37t39.5 110h135v-45z" />
    <glyph glyph-name="ebreve" unicode="&#x115;" horiz-adv-x="1263" 
d="M629 950q-121 0 -206.5 -76.5t-103.5 -207.5h625q-3 128 -92.5 206t-222.5 78zM1157 336q-50 -156 -185 -255t-333 -99q-246 0 -404.5 160.5t-158.5 422.5q0 264 155.5 423t407.5 159q243 0 396 -153.5t153 -401.5q0 -63 -8 -115h-863q12 -137 101.5 -218t220.5 -81
q189 0 266 158h252zM942 1507q0 -129 -82.5 -206.5t-226.5 -77.5q-143 0 -225 78.5t-82 207.5v43h133q0 -73 39.5 -110t134.5 -37t134.5 37t39.5 110h135v-45z" />
    <glyph glyph-name="Edotaccent" unicode="&#x116;" horiz-adv-x="1073" 
d="M940 1425v-190h-553v-418h492v-190h-492v-437h553v-190h-786v1425h786zM537 1567q-53 0 -88 35.5t-35 87.5q0 51 35.5 86.5t87.5 35.5q51 0 86.5 -35.5t35.5 -86.5q0 -52 -35.5 -87.5t-86.5 -35.5z" />
    <glyph glyph-name="edotaccent" unicode="&#x117;" horiz-adv-x="1263" 
d="M629 950q-121 0 -206.5 -76.5t-103.5 -207.5h625q-3 128 -92.5 206t-222.5 78zM1157 336q-50 -156 -185 -255t-333 -99q-246 0 -404.5 160.5t-158.5 422.5q0 264 155.5 423t407.5 159q243 0 396 -153.5t153 -401.5q0 -63 -8 -115h-863q12 -137 101.5 -218t220.5 -81
q189 0 266 158h252zM633 1270q-53 0 -88 35t-35 88q0 51 35.5 87t87.5 36q51 0 87 -36t36 -87q0 -52 -36 -87.5t-87 -35.5z" />
    <glyph glyph-name="Eogonek" unicode="&#x118;" horiz-adv-x="1073" 
d="M940 1425v-190h-553v-418h492v-190h-492v-437h553v-190l-100 -51q-64 -33 -90.5 -65t-26.5 -70q0 -43 30.5 -69t82.5 -26q59 0 135 29v-149q-81 -31 -166 -31q-51 0 -97.5 12t-87 36.5t-64.5 69t-24 103.5q0 118 121 211h-499v1425h786z" />
    <glyph glyph-name="eogonek" unicode="&#x119;" horiz-adv-x="1263" 
d="M629 950q-121 0 -206.5 -76.5t-103.5 -207.5h625q-3 128 -92.5 206t-222.5 78zM887 -373q-78 -30 -166 -30q-51 0 -97.5 12t-86.5 36.5t-64 69t-24 103.5q0 97 77 174q-202 36 -326 190t-124 383q0 264 155.5 423t407.5 159q243 0 396 -153.5t153 -401.5q0 -63 -8 -115
h-863q12 -137 101.5 -218t220.5 -81q189 0 266 158h252q-38 -120 -129 -209t-223 -125l-49 -25q-64 -33 -90.5 -65t-26.5 -70q0 -43 30.5 -68.5t82.5 -25.5q59 0 135 29v-150z" />
    <glyph glyph-name="Ecaron" unicode="&#x11a;" horiz-adv-x="1073" 
d="M940 1425v-190h-553v-418h492v-190h-492v-437h553v-190h-786v1425h786zM537 1681l292 177v-183l-292 -170l-293 170v183z" />
    <glyph glyph-name="ecaron" unicode="&#x11b;" horiz-adv-x="1263" 
d="M629 950q-121 0 -206.5 -76.5t-103.5 -207.5h625q-3 128 -92.5 206t-222.5 78zM1157 336q-50 -156 -185 -255t-333 -99q-246 0 -404.5 160.5t-158.5 422.5q0 264 155.5 423t407.5 159q243 0 396 -153.5t153 -401.5q0 -63 -8 -115h-863q12 -137 101.5 -218t220.5 -81
q189 0 266 158h252zM633 1384l293 177v-183l-293 -170l-293 170v183z" />
    <glyph glyph-name="Gbreve" unicode="&#x11e;" horiz-adv-x="1583" 
d="M803 1442q227 0 404 -111.5t257 -316.5h-280q-56 106 -154 160.5t-227 54.5q-215 0 -351.5 -141t-136.5 -373t136.5 -374t351.5 -142q190 0 308.5 106t145.5 289h-534v186h784v-182q-16 -124 -75 -234.5t-149 -194t-215 -132.5t-265 -49q-200 0 -365.5 91.5t-263.5 259
t-98 376.5q0 208 98 375.5t264 259.5t365 92zM1100 1804q0 -129 -82.5 -206.5t-226.5 -77.5q-143 0 -225.5 78.5t-82.5 207.5v43h133q0 -73 40 -110t135 -37t134.5 37t39.5 110h135v-45z" />
    <glyph glyph-name="gbreve" unicode="&#x11f;" horiz-adv-x="1388" 
d="M76 569q0 128 41.5 237t113 183t169 116t208.5 42q130 0 232 -51.5t159 -130.5v163h236v-1146q0 -237 -147 -388t-404 -151q-229 0 -380.5 107t-172.5 292h231q26 -88 113.5 -142t208.5 -54q141 0 228 86.5t87 249.5v188q-60 -80 -161 -134t-230 -54q-226 0 -379 165
t-153 422zM999 565q0 88 -28.5 161t-76.5 120t-109 72.5t-128 25.5q-139 0 -240.5 -100.5t-101.5 -274.5q0 -175 102 -280t240 -105q67 0 128 25.5t109 73t76.5 120.5t28.5 162zM1004 1507q0 -129 -82.5 -206.5t-227.5 -77.5q-143 0 -225 78.5t-82 207.5v43h133
q0 -73 39.5 -110t134.5 -37t134.5 37t39.5 110h136v-45z" />
    <glyph glyph-name="Gdotaccent" unicode="&#x120;" horiz-adv-x="1583" 
d="M803 1442q227 0 404 -111.5t257 -316.5h-280q-56 106 -154 160.5t-227 54.5q-215 0 -351.5 -141t-136.5 -373t136.5 -374t351.5 -142q190 0 308.5 106t145.5 289h-534v186h784v-182q-16 -124 -75 -234.5t-149 -194t-215 -132.5t-265 -49q-200 0 -365.5 91.5t-263.5 259
t-98 376.5q0 208 98 375.5t264 259.5t365 92zM791 1567q-53 0 -88 35.5t-35 87.5q0 51 35.5 86.5t87.5 35.5q51 0 86.5 -35.5t35.5 -86.5q0 -52 -35.5 -87.5t-86.5 -35.5z" />
    <glyph glyph-name="gdotaccent" unicode="&#x121;" horiz-adv-x="1388" 
d="M76 569q0 128 41.5 237t113 183t169 116t208.5 42q130 0 232 -51.5t159 -130.5v163h236v-1146q0 -237 -147 -388t-404 -151q-229 0 -380.5 107t-172.5 292h231q26 -88 113.5 -142t208.5 -54q141 0 228 86.5t87 249.5v188q-60 -80 -161 -134t-230 -54q-226 0 -379 165
t-153 422zM999 565q0 88 -28.5 161t-76.5 120t-109 72.5t-128 25.5q-139 0 -240.5 -100.5t-101.5 -274.5q0 -175 102 -280t240 -105q67 0 128 25.5t109 73t76.5 120.5t28.5 162zM694 1270q-52 0 -87.5 35t-35.5 88q0 51 35.5 87t87.5 36q51 0 87 -36t36 -87q0 -52 -36 -87.5
t-87 -35.5z" />
    <glyph glyph-name="uni0122" unicode="&#x122;" horiz-adv-x="1583" 
d="M680 -94h211q29 -122 29 -203q0 -256 -232 -256v102q100 0 100 117v43h-108v197zM803 1442q227 0 404 -111.5t257 -316.5h-280q-56 106 -154 160.5t-227 54.5q-215 0 -351.5 -141t-136.5 -373t136.5 -374t351.5 -142q190 0 308.5 106t145.5 289h-534v186h784v-182
q-16 -124 -75 -234.5t-149 -194t-215 -132.5t-265 -49q-200 0 -365.5 91.5t-263.5 259t-98 376.5q0 208 98 375.5t264 259.5t365 92z" />
    <glyph glyph-name="uni0123" unicode="&#x123;" horiz-adv-x="1388" 
d="M805 1223h-211q-27 114 -27 202q0 256 230 256v-102q-99 0 -99 -115v-43h107v-198zM76 569q0 128 41.5 237t113 183t169 116t208.5 42q130 0 232 -51.5t159 -130.5v163h236v-1146q0 -237 -147 -388t-404 -151q-229 0 -380.5 107t-172.5 292h231q26 -88 113.5 -142
t208.5 -54q141 0 228 86.5t87 249.5v188q-60 -80 -161 -134t-230 -54q-226 0 -379 165t-153 422zM999 565q0 88 -28.5 161t-76.5 120t-109 72.5t-128 25.5q-139 0 -240.5 -100.5t-101.5 -274.5q0 -175 102 -280t240 -105q67 0 128 25.5t109 73t76.5 120.5t28.5 162z" />
    <glyph glyph-name="Itilde" unicode="&#x128;" horiz-adv-x="540" 
d="M154 0v1423h233v-1423h-233zM-63 1542q17 118 78 179t153 61q47 0 89 -22.5t79 -45t70 -22.5q76 0 88 86h131q-17 -118 -78.5 -179t-153.5 -61q-37 0 -72 14.5t-57.5 31.5t-51.5 31.5t-56 14.5q-35 0 -58.5 -22.5t-29.5 -65.5h-131z" />
    <glyph glyph-name="itilde" unicode="&#x129;" horiz-adv-x="540" 
d="M154 0v1128h233v-1128h-233zM-63 1245q17 118 78 179t153 61q47 0 89 -22.5t79 -45t70 -22.5q76 0 88 86h131q-17 -118 -78.5 -179t-153.5 -61q-37 0 -72 14.5t-57.5 31.5t-51.5 31.5t-56 14.5q-35 0 -58.5 -22.5t-29.5 -65.5h-131z" />
    <glyph glyph-name="Imacron" unicode="&#x12a;" horiz-adv-x="540" 
d="M154 0v1423h233v-1423h-233zM-104 1597v175h749v-175h-749z" />
    <glyph glyph-name="imacron" unicode="&#x12b;" horiz-adv-x="540" 
d="M154 0v1128h233v-1128h-233zM-104 1300v175h749v-175h-749z" />
    <glyph glyph-name="uni012C" unicode="&#x12c;" horiz-adv-x="540" 
d="M154 0v1423h233v-1423h-233zM580 1804q0 -129 -82.5 -206.5t-227.5 -77.5q-143 0 -225 78.5t-82 207.5v43h133q0 -73 39.5 -110t134.5 -37t134.5 37t39.5 110h136v-45z" />
    <glyph glyph-name="uni012D" unicode="&#x12d;" horiz-adv-x="540" 
d="M154 0v1128h233v-1128h-233zM580 1507q0 -129 -82.5 -206.5t-227.5 -77.5q-143 0 -225 78.5t-82 207.5v43h133q0 -73 39.5 -110t134.5 -37t134.5 37t39.5 110h136v-45z" />
    <glyph glyph-name="Iogonek" unicode="&#x12e;" horiz-adv-x="540" 
d="M418 -399q-81 -31 -166 -31q-51 0 -97.5 12t-86.5 36.5t-64 69t-24 103.5q0 142 174 246v1386h233v-1423h-4l-96 -49q-64 -33 -90.5 -65t-26.5 -70q0 -43 30.5 -69t82.5 -26q59 0 135 29v-149z" />
    <glyph glyph-name="iogonek" unicode="&#x12f;" horiz-adv-x="540" 
d="M418 -399q-81 -31 -166 -31q-51 0 -97.5 12t-86.5 36.5t-64 69t-24 103.5q0 142 174 246v1091h233v-1128h-4l-96 -49q-64 -33 -90.5 -65t-26.5 -70q0 -43 30.5 -69t82.5 -26q59 0 135 29v-149zM272 1278q-63 0 -106 43t-43 106t43 106.5t106 43.5q62 0 105 -43.5
t43 -106.5t-43 -106t-105 -43z" />
    <glyph glyph-name="Idotaccent" unicode="&#x130;" horiz-adv-x="540" 
d="M154 0v1423h233v-1423h-233zM270 1567q-52 0 -87.5 35.5t-35.5 87.5q0 51 35.5 86.5t87.5 35.5q51 0 87 -35.5t36 -86.5q0 -52 -36 -87.5t-87 -35.5z" />
    <glyph glyph-name="dotlessi" unicode="&#x131;" horiz-adv-x="540" 
d="M154 0v1128h233v-1128h-233z" />
    <glyph glyph-name="uni0136" unicode="&#x136;" horiz-adv-x="1296" 
d="M537 -94h211q28 -106 28 -203q0 -256 -229 -256v102q98 0 98 117v43h-108v197zM938 0l-551 637v-637h-233v1423h233v-649l553 649h293l-619 -712l629 -711h-305z" />
    <glyph glyph-name="uni0137" unicode="&#x137;" horiz-adv-x="1134" 
d="M457 -94h211q26 -110 26 -203q0 -256 -229 -256v102q100 0 100 117v43h-108v197zM154 0v1516h233v-881l410 493h323l-520 -565l520 -563h-315l-418 485v-485h-233z" />
    <glyph glyph-name="Lacute" unicode="&#x139;" horiz-adv-x="909" 
d="M154 1423h233v-1235h481v-188h-714v1423zM213 1677l453 250v-198l-453 -224v172z" />
    <glyph glyph-name="lacute" unicode="&#x13a;" horiz-adv-x="540" 
d="M154 0v1516h233v-1516h-233zM29 1767l452 250v-198l-452 -224v172z" />
    <glyph glyph-name="uni013B" unicode="&#x13b;" horiz-adv-x="909" 
d="M395 -94h211q29 -110 29 -203q0 -256 -232 -256v102q101 0 101 117v43h-109v197zM154 1423h233v-1235h481v-188h-714v1423z" />
    <glyph glyph-name="uni013C" unicode="&#x13c;" horiz-adv-x="540" 
d="M160 -94h211q28 -118 28 -203q0 -256 -231 -256v102q100 0 100 117v43h-108v197zM154 0v1516h233v-1516h-233z" />
    <glyph glyph-name="Lcaron" unicode="&#x13d;" horiz-adv-x="948" 
d="M608 1423h211q29 -110 29 -202q0 -256 -230 -256v102q99 0 99 117v43h-109v196zM154 1423h233v-1235h481v-188h-714v1423z" />
    <glyph glyph-name="lcaron" unicode="&#x13e;" horiz-adv-x="874" 
d="M547 1516h211q28 -106 28 -205q0 -254 -229 -254v102q98 0 98 115v43h-108v199zM154 0v1516h233v-1516h-233z" />
    <glyph glyph-name="Ldot" unicode="&#x13f;" horiz-adv-x="909" 
d="M154 1423h233v-1235h481v-188h-714v1423zM455 1567q-53 0 -88 35.5t-35 87.5q0 51 35.5 86.5t87.5 35.5q51 0 87 -35.5t36 -86.5q0 -52 -36 -87.5t-87 -35.5z" />
    <glyph glyph-name="ldot" unicode="&#x140;" horiz-adv-x="540" 
d="M270 1567q-52 0 -87.5 35.5t-35.5 87.5q0 51 35.5 86.5t87.5 35.5q51 0 87 -35.5t36 -86.5q0 -52 -36 -87.5t-87 -35.5zM154 0v1516h233v-1516h-233z" />
    <glyph glyph-name="Lslash" unicode="&#x141;" horiz-adv-x="909" 
d="M176 1423h236v-571l188 61v-178l-188 -61v-496h479v-178h-715v598l-158 -51v176l158 51v649z" />
    <glyph glyph-name="lslash" unicode="&#x142;" horiz-adv-x="540" 
d="M154 0v606l-136 -47v180l136 45v732h233v-652l137 47v-178l-137 -47v-686h-233z" />
    <glyph glyph-name="Nacute" unicode="&#x143;" horiz-adv-x="1476" 
d="M1090 1425h233v-1425h-233l-703 1063v-1063h-233v1425h233l703 -1060v1060zM498 1677l452 250v-198l-452 -224v172z" />
    <glyph glyph-name="nacute" unicode="&#x144;" horiz-adv-x="1329" 
d="M444 1380l453 250v-198l-453 -224v172zM954 0v631q0 152 -75.5 232.5t-206.5 80.5q-132 0 -208.5 -80.5t-76.5 -232.5v-631h-233v1128h233v-129q57 69 146 108.5t190 39.5q205 0 334 -126t129 -355v-666h-232z" />
    <glyph glyph-name="uni0145" unicode="&#x145;" horiz-adv-x="1476" 
d="M627 -94h211q28 -106 28 -203q0 -256 -229 -256v102q98 0 98 117v43h-108v197zM1090 1425h233v-1425h-233l-703 1063v-1063h-233v1425h233l703 -1060v1060z" />
    <glyph glyph-name="uni0146" unicode="&#x146;" horiz-adv-x="1329" 
d="M553 -94h211q29 -110 29 -203q0 -256 -230 -256v102q99 0 99 117v43h-109v197zM954 0v631q0 152 -75.5 232.5t-206.5 80.5q-132 0 -208.5 -80.5t-76.5 -232.5v-631h-233v1128h233v-129q57 69 146 108.5t190 39.5q205 0 334 -126t129 -355v-666h-232z" />
    <glyph glyph-name="Ncaron" unicode="&#x147;" horiz-adv-x="1476" 
d="M1090 1425h233v-1425h-233l-703 1063v-1063h-233v1425h233l703 -1060v1060zM739 1681l293 177v-183l-293 -170l-293 170v183z" />
    <glyph glyph-name="ncaron" unicode="&#x148;" horiz-adv-x="1329" 
d="M954 0v631q0 152 -75.5 232.5t-206.5 80.5q-132 0 -208.5 -80.5t-76.5 -232.5v-631h-233v1128h233v-129q57 69 146 108.5t190 39.5q205 0 334 -126t129 -355v-666h-232zM686 1384l293 177v-183l-293 -170l-293 170v183z" />
    <glyph glyph-name="Omacron" unicode="&#x14c;" horiz-adv-x="1605" 
d="M1530 715q0 -210 -97 -377.5t-262.5 -259.5t-367.5 -92q-199 0 -365 92t-264 260t-98 377q0 208 98 375.5t264 259.5t365 92q202 0 367.5 -92t262.5 -259t97 -376zM315 715q0 -239 136.5 -383t351.5 -144t351 144t136 383q0 238 -136 380t-351 142q-216 0 -352 -142
t-136 -380zM428 1597v175h750v-175h-750z" />
    <glyph glyph-name="omacron" unicode="&#x14d;" horiz-adv-x="1306" 
d="M1229 565q0 -173 -79 -307t-212 -205t-295 -71q-120 0 -224 41.5t-179.5 116.5t-118.5 185t-43 240t44.5 240t122 184.5t183 116t225.5 41.5q161 0 291.5 -70.5t207.5 -204.5t77 -307zM315 565q0 -183 94 -282t234 -99q67 0 128 24t110 70t78.5 120t29.5 167t-28.5 167
t-76.5 119t-108 69t-127 24q-141 0 -237.5 -98.5t-96.5 -280.5zM279 1319v174h749v-174h-749z" />
    <glyph glyph-name="uni014E" unicode="&#x14e;" horiz-adv-x="1605" 
d="M1530 715q0 -210 -97 -377.5t-262.5 -259.5t-367.5 -92q-199 0 -365 92t-264 260t-98 377q0 208 98 375.5t264 259.5t365 92q202 0 367.5 -92t262.5 -259t97 -376zM315 715q0 -239 136.5 -383t351.5 -144t351 144t136 383q0 238 -136 380t-351 142q-216 0 -352 -142
t-136 -380zM1112 1804q0 -129 -82.5 -206.5t-226.5 -77.5q-143 0 -225 78.5t-82 207.5v43h133q0 -73 39.5 -110t134.5 -37t134.5 37t39.5 110h135v-45z" />
    <glyph glyph-name="uni014F" unicode="&#x14f;" horiz-adv-x="1306" 
d="M1229 565q0 -173 -79 -307t-212 -205t-295 -71q-120 0 -224 41.5t-179.5 116.5t-118.5 185t-43 240t44.5 240t122 184.5t183 116t225.5 41.5q161 0 291.5 -70.5t207.5 -204.5t77 -307zM315 565q0 -183 94 -282t234 -99q67 0 128 24t110 70t78.5 120t29.5 167t-28.5 167
t-76.5 119t-108 69t-127 24q-141 0 -237.5 -98.5t-96.5 -280.5zM963 1526q0 -129 -83 -207t-227 -78q-143 0 -225 79t-82 208v43h133q0 -73 39.5 -110.5t134.5 -37.5t134.5 37.5t39.5 110.5h136v-45z" />
    <glyph glyph-name="Ohungarumlaut" unicode="&#x150;" horiz-adv-x="1605" 
d="M1530 715q0 -210 -97 -377.5t-262.5 -259.5t-367.5 -92q-199 0 -365 92t-264 260t-98 377q0 208 98 375.5t264 259.5t365 92q202 0 367.5 -92t262.5 -259t97 -376zM315 715q0 -239 136.5 -383t351.5 -144t351 144t136 383q0 238 -136 380t-351 142q-216 0 -352 -142
t-136 -380zM682 1876h203l-193 -348h-151zM1022 1876h203l-205 -348h-152z" />
    <glyph glyph-name="ohungarumlaut" unicode="&#x151;" horiz-adv-x="1306" 
d="M1229 565q0 -173 -79 -307t-212 -205t-295 -71q-120 0 -224 41.5t-179.5 116.5t-118.5 185t-43 240t44.5 240t122 184.5t183 116t225.5 41.5q161 0 291.5 -70.5t207.5 -204.5t77 -307zM315 565q0 -183 94 -282t234 -99q67 0 128 24t110 70t78.5 120t29.5 167t-28.5 167
t-76.5 119t-108 69t-127 24q-141 0 -237.5 -98.5t-96.5 -280.5zM532 1597h203l-192 -348h-152zM872 1597h203l-205 -348h-151z" />
    <glyph glyph-name="OE" unicode="&#x152;" horiz-adv-x="2209" 
d="M2077 1241h-553v-432h491v-180h-491v-447h553v-182h-787v227q-177 -241 -506 -241q-142 0 -272 54.5t-226 149t-153 231.5t-57 294t57 294t153.5 231t225.5 148t270 54q328 0 508 -236v217h787v-182zM803 1229q-215 0 -351.5 -141t-136.5 -373q0 -233 137 -375.5
t351 -142.5t350.5 142.5t136.5 375.5q0 232 -136 373t-351 141z" />
    <glyph glyph-name="oe" unicode="&#x153;" horiz-adv-x="2174" 
d="M987 565q0 182 -99.5 283.5t-240.5 101.5q-139 0 -235.5 -101t-96.5 -284q0 -184 94 -285.5t234 -101.5q66 0 127 25t110 72t78 122t29 168zM1540 950q-125 0 -211 -82.5t-98 -222.5h624q-3 138 -92.5 221.5t-222.5 83.5zM76 565q0 130 45 240t122.5 184.5t183.5 116
t226 41.5q139 0 257.5 -61.5t193.5 -172.5q71 112 186 173t260 61q242 0 395.5 -153t153.5 -398q0 -59 -8 -111h-862q9 -141 94 -224t217 -83q191 0 268 158h252q-50 -156 -186 -255t-334 -99q-141 0 -254 61.5t-184 175.5q-76 -113 -196.5 -175t-262.5 -62
q-121 0 -225.5 41.5t-180 116.5t-118.5 185t-43 240z" />
    <glyph glyph-name="Racute" unicode="&#x154;" horiz-adv-x="1294" 
d="M909 997q0 111 -65.5 173.5t-198.5 62.5h-258v-477h258q132 0 198 65t66 176zM154 1423h491q123 0 220.5 -34t158.5 -92.5t93 -135t32 -164.5q0 -66 -18.5 -127t-56 -117t-103 -99t-152.5 -64l352 -590h-278l-328 569h-178v-569h-233v1423zM406 1677l452 250v-198
l-452 -224v172z" />
    <glyph glyph-name="racute" unicode="&#x155;" horiz-adv-x="786" 
d="M387 594v-594h-233v1128h233v-163q106 182 338 182v-242h-59q-138 0 -208.5 -70t-70.5 -241zM252 1380l453 250v-198l-453 -224v172z" />
    <glyph glyph-name="uni0156" unicode="&#x156;" horiz-adv-x="1294" 
d="M537 -94h211q26 -110 26 -203q0 -256 -229 -256v102q98 0 98 117v43h-106v197zM387 0h-233v1423h491q123 0 220.5 -34t158.5 -92.5t93 -135t32 -164.5q0 -66 -18.5 -127t-56 -117t-103 -99t-152.5 -64l352 -590h-278l-328 569h-178v-569zM909 997q0 111 -65.5 173.5
t-198.5 62.5h-258v-477h258q132 0 198 65t66 176z" />
    <glyph glyph-name="uni0157" unicode="&#x157;" horiz-adv-x="786" 
d="M158 -94h211q28 -106 28 -203q0 -256 -229 -256v102q98 0 98 117v43h-108v197zM387 594v-594h-233v1128h233v-163q106 182 338 182v-242h-59q-138 0 -208.5 -70t-70.5 -241z" />
    <glyph glyph-name="Rcaron" unicode="&#x158;" horiz-adv-x="1294" 
d="M909 997q0 111 -65.5 173.5t-198.5 62.5h-258v-477h258q132 0 198 65t66 176zM154 1423h491q123 0 220.5 -34t158.5 -92.5t93 -135t32 -164.5q0 -66 -18.5 -127t-56 -117t-103 -99t-152.5 -64l352 -590h-278l-328 569h-178v-569h-233v1423zM647 1681l293 177v-183
l-293 -170l-293 170v183z" />
    <glyph glyph-name="rcaron" unicode="&#x159;" horiz-adv-x="786" 
d="M387 594v-594h-233v1128h233v-163q106 182 338 182v-242h-59q-138 0 -208.5 -70t-70.5 -241zM494 1384l292 177v-183l-292 -170l-293 170v183z" />
    <glyph glyph-name="Sacute" unicode="&#x15a;" horiz-adv-x="1236" 
d="M1114 403q0 -81 -33 -155.5t-93 -133t-155 -93.5t-210 -35q-219 0 -361.5 111t-142.5 296h250q8 -93 73 -152t181 -59q120 0 188 58t68 151q0 55 -26 95t-69.5 65t-100.5 43.5t-119.5 35t-125 35t-119.5 48t-100.5 70t-69.5 105t-26 148.5q0 186 134.5 296t354.5 110
q207 0 339 -103t147 -284h-258q-6 76 -70.5 130.5t-169.5 57.5q-106 3 -173 -48.5t-67 -150.5q0 -51 26 -89t69.5 -62t100 -42.5t119 -35.5t125 -36.5t119 -50t100 -71.5t69.5 -106t26 -148zM371 1694l452 250v-199l-452 -223v172z" />
    <glyph glyph-name="sacute" unicode="&#x15b;" horiz-adv-x="1093" 
d="M995 315q0 -145 -118 -239t-314 -94q-200 0 -331.5 104t-139.5 260h242q6 -71 68.5 -119.5t156.5 -48.5q99 0 153 37.5t54 97.5q0 35 -22.5 61.5t-60.5 44t-87 32t-103.5 29t-108.5 31.5t-103 43.5t-87 60.5t-60.5 87t-22.5 119q0 139 119.5 232.5t314.5 93.5
q192 0 309.5 -97.5t126.5 -265.5h-233q-6 75 -62 120.5t-149 45.5q-92 0 -141.5 -34.5t-49.5 -92.5q0 -46 35 -78t91.5 -51.5t125 -37t137.5 -42.5t126 -59.5t94.5 -95.5t39.5 -144zM303 1399l453 250v-199l-453 -223v172z" />
    <glyph glyph-name="uni015E" unicode="&#x15e;" horiz-adv-x="1236" 
d="M1114 403q0 -153 -108.5 -271t-298.5 -142v-103q118 0 192 -56t74 -159q0 -102 -74 -162.5t-186 -60.5h-271v148h224q58 0 86 16t28 59t-28 59.5t-86 16.5h-113v242q-192 18 -313 126t-121 277h250q8 -93 73 -152t181 -59q120 0 188 58t68 151q0 55 -26 95t-69.5 65
t-100.5 43.5t-119.5 35t-125 35t-119.5 48t-100.5 70t-69.5 105t-26 148.5q0 186 134.5 296t354.5 110q207 0 339 -103t147 -284h-258q-6 76 -70.5 130.5t-169.5 57.5q-106 3 -173 -48.5t-67 -150.5q0 -51 26 -89t69.5 -62t100 -42.5t119 -35.5t125 -36.5t119 -50t100 -71.5
t69.5 -106t26 -148z" />
    <glyph glyph-name="uni015F" unicode="&#x15f;" horiz-adv-x="1093" 
d="M995 315q0 -133 -98 -223.5t-266 -105.5v-84q118 0 192 -56t74 -159q0 -102 -74 -163t-186 -61h-270v148h223q58 0 86.5 16.5t28.5 59.5t-28 59t-87 16h-113v226q-166 22 -272.5 121.5t-112.5 236.5h242q6 -71 68.5 -119.5t156.5 -48.5q99 0 153 37.5t54 97.5
q0 35 -22.5 61.5t-60.5 44t-87 32t-103.5 29t-108.5 31.5t-103 43.5t-87 60.5t-60.5 87t-22.5 119q0 139 119.5 232.5t314.5 93.5q192 0 309.5 -97.5t126.5 -265.5h-233q-6 75 -62 120.5t-149 45.5q-92 0 -141.5 -34.5t-49.5 -92.5q0 -46 35 -78t91.5 -51.5t125 -37
t137.5 -42.5t126 -59.5t94.5 -95.5t39.5 -144z" />
    <glyph glyph-name="Scaron" unicode="&#x160;" horiz-adv-x="1236" 
d="M1114 403q0 -81 -33 -155.5t-93 -133t-155 -93.5t-210 -35q-219 0 -361.5 111t-142.5 296h250q8 -93 73 -152t181 -59q120 0 188 58t68 151q0 55 -26 95t-69.5 65t-100.5 43.5t-119.5 35t-125 35t-119.5 48t-100.5 70t-69.5 105t-26 148.5q0 186 134.5 296t354.5 110
q207 0 339 -103t147 -284h-258q-6 76 -70.5 130.5t-169.5 57.5q-106 3 -173 -48.5t-67 -150.5q0 -51 26 -89t69.5 -62t100 -42.5t119 -35.5t125 -36.5t119 -50t100 -71.5t69.5 -106t26 -148zM612 1698l293 176v-182l-293 -170l-293 170v182z" />
    <glyph glyph-name="scaron" unicode="&#x161;" horiz-adv-x="1093" 
d="M995 315q0 -145 -118 -239t-314 -94q-200 0 -331.5 104t-139.5 260h242q6 -71 68.5 -119.5t156.5 -48.5q99 0 153 37.5t54 97.5q0 35 -22.5 61.5t-60.5 44t-87 32t-103.5 29t-108.5 31.5t-103 43.5t-87 60.5t-60.5 87t-22.5 119q0 139 119.5 232.5t314.5 93.5
q192 0 309.5 -97.5t126.5 -265.5h-233q-6 75 -62 120.5t-149 45.5q-92 0 -141.5 -34.5t-49.5 -92.5q0 -46 35 -78t91.5 -51.5t125 -37t137.5 -42.5t126 -59.5t94.5 -95.5t39.5 -144zM545 1403l293 176v-182l-293 -170l-293 170v182z" />
    <glyph glyph-name="uni0162" unicode="&#x162;" horiz-adv-x="1155" 
d="M80 1233v190h993v-190h-379v-1233h-37v-98q118 0 192.5 -56.5t74.5 -158.5t-74 -163t-186 -61h-271v148h223q58 0 86.5 16.5t28.5 59.5t-28 59t-87 16h-112v238h-43v1233h-381z" />
    <glyph glyph-name="uni0163" unicode="&#x163;" horiz-adv-x="761" 
d="M190 313v625h-133v190h133v281h236v-281h274v-190h-274v-625q0 -64 29 -91t102 -27h143v-195h-184q-33 0 -49 2v-100q118 0 192 -56t74 -159q0 -102 -74 -163t-186 -61h-270v148h223q58 0 86.5 16.5t28.5 59.5t-28 59t-87 16h-113v283q-123 74 -123 268z" />
    <glyph glyph-name="Tcaron" unicode="&#x164;" horiz-adv-x="1155" 
d="M80 1233v190h993v-190h-379v-1233h-233v1233h-381zM578 1681l292 177v-183l-292 -170l-293 170v183z" />
    <glyph glyph-name="tcaron" unicode="&#x165;" horiz-adv-x="772" 
d="M575 1606h211q29 -122 29 -185q0 -213 -231 -213v103q52 0 76 15t24 50v31h-109v199zM190 313v625h-133v190h133v281h236v-281h274v-190h-274v-625q0 -64 29 -91t102 -27h143v-195h-184q-158 0 -242 74t-84 239z" />
    <glyph glyph-name="Utilde" unicode="&#x168;" horiz-adv-x="1413" 
d="M152 520v903h233v-907q0 -162 85 -244t237 -82q153 0 238 82t85 244v907h234v-903q0 -132 -45 -235.5t-123.5 -168t-177.5 -97.5t-213 -33t-213 33t-175.5 97.5t-120.5 168t-44 235.5zM373 1542q17 118 78 179t153 61q47 0 89 -22.5t79 -45t70 -22.5q76 0 88 86h131
q-17 -118 -78.5 -179t-153.5 -61q-37 0 -72 14.5t-57.5 31.5t-51.5 31.5t-56 14.5q-35 0 -58.5 -22.5t-29.5 -65.5h-131z" />
    <glyph glyph-name="utilde" unicode="&#x169;" horiz-adv-x="1329" 
d="M942 0v135q-55 -71 -144 -111t-190 -40q-100 0 -184.5 31.5t-147 90.5t-98 151.5t-35.5 207.5v663h232v-628q0 -152 76 -233t206 -81q132 0 208.5 81t76.5 233v628h234v-1128h-234zM332 1245q17 118 78 179t153 61q47 0 89 -22.5t79 -45t70 -22.5q76 0 88 86h131
q-17 -118 -78.5 -179t-153.5 -61q-37 0 -72 14.5t-57.5 31.5t-51.5 31.5t-56 14.5q-35 0 -58.5 -22.5t-29.5 -65.5h-131z" />
    <glyph glyph-name="Umacron" unicode="&#x16a;" horiz-adv-x="1413" 
d="M152 520v903h233v-907q0 -162 85 -244t237 -82q153 0 238 82t85 244v907h234v-903q0 -132 -45 -235.5t-123.5 -168t-177.5 -97.5t-213 -33t-213 33t-175.5 97.5t-120.5 168t-44 235.5zM332 1597v175h749v-175h-749z" />
    <glyph glyph-name="umacron" unicode="&#x16b;" horiz-adv-x="1329" 
d="M1176 1128v-1128h-234v135q-55 -71 -144 -111t-190 -40q-100 0 -184.5 31.5t-147 90.5t-98 151.5t-35.5 207.5v663h232v-628q0 -152 76 -233t206 -81q132 0 208.5 81t76.5 233v628h234zM291 1300v175h749v-175h-749z" />
    <glyph glyph-name="Ubreve" unicode="&#x16c;" horiz-adv-x="1413" 
d="M152 520v903h233v-907q0 -162 85 -244t237 -82q153 0 238 82t85 244v907h234v-903q0 -132 -45 -235.5t-123.5 -168t-177.5 -97.5t-213 -33t-213 33t-175.5 97.5t-120.5 168t-44 235.5zM1016 1804q0 -129 -82.5 -206.5t-226.5 -77.5q-143 0 -225.5 78.5t-82.5 207.5v43
h133q0 -73 40 -110t135 -37t134.5 37t39.5 110h135v-45z" />
    <glyph glyph-name="ubreve" unicode="&#x16d;" horiz-adv-x="1329" 
d="M1176 1128v-1128h-234v135q-55 -71 -144 -111t-190 -40q-100 0 -184.5 31.5t-147 90.5t-98 151.5t-35.5 207.5v663h232v-628q0 -152 76 -233t206 -81q132 0 208.5 81t76.5 233v628h234zM975 1507q0 -129 -82.5 -206.5t-226.5 -77.5q-143 0 -225.5 78.5t-82.5 207.5v43
h134q0 -73 39.5 -110t134.5 -37t134.5 37t39.5 110h135v-45z" />
    <glyph glyph-name="Uring" unicode="&#x16e;" horiz-adv-x="1413" 
d="M152 520v903h233v-907q0 -162 85 -244t237 -82q153 0 238 82t85 244v907h234v-903q0 -132 -45 -235.5t-123.5 -168t-177.5 -97.5t-213 -33t-213 33t-175.5 97.5t-120.5 168t-44 235.5zM707 1985q99 0 165 -62t66 -164q0 -101 -66 -162t-165 -61q-97 0 -163.5 61.5
t-66.5 161.5q0 101 66.5 163.5t163.5 62.5zM707 1657q42 0 71 29.5t29 74.5q0 46 -29 75.5t-71 29.5q-41 0 -70 -29.5t-29 -75.5q0 -45 29 -74.5t70 -29.5z" />
    <glyph glyph-name="uring" unicode="&#x16f;" horiz-adv-x="1329" 
d="M1176 1128v-1128h-234v135q-55 -71 -144 -111t-190 -40q-100 0 -184.5 31.5t-147 90.5t-98 151.5t-35.5 207.5v663h232v-628q0 -152 76 -233t206 -81q132 0 208.5 81t76.5 233v628h234zM666 1360q42 0 71 29.5t29 74.5q0 46 -29 75.5t-71 29.5q-41 0 -70 -29.5t-29 -75.5
q0 -45 29 -74.5t70 -29.5zM666 1688q99 0 165 -62t66 -164q0 -101 -66 -162t-165 -61q-97 0 -163.5 61.5t-66.5 161.5q0 101 66.5 163.5t163.5 62.5z" />
    <glyph glyph-name="Uhungarumlaut" unicode="&#x170;" horiz-adv-x="1413" 
d="M152 520v903h233v-907q0 -162 85 -244t237 -82q153 0 238 82t85 244v907h234v-903q0 -132 -45 -235.5t-123.5 -168t-177.5 -97.5t-213 -33t-213 33t-175.5 97.5t-120.5 168t-44 235.5zM586 1876h202l-192 -348h-152zM926 1876h202l-204 -348h-152z" />
    <glyph glyph-name="uhungarumlaut" unicode="&#x171;" horiz-adv-x="1329" 
d="M1176 1128v-1128h-234v135q-55 -71 -144 -111t-190 -40q-100 0 -184.5 31.5t-147 90.5t-98 151.5t-35.5 207.5v663h232v-628q0 -152 76 -233t206 -81q132 0 208.5 81t76.5 233v628h234zM545 1579h203l-193 -348h-152zM885 1579h202l-204 -348h-152z" />
    <glyph glyph-name="Uogonek" unicode="&#x172;" horiz-adv-x="1413" 
d="M152 520v903h233v-907q0 -162 85 -244t237 -82q153 0 238 82t85 244v907h234v-903q0 -214 -113 -346.5t-295 -171.5v-2l-100 -51q-64 -33 -90.5 -65t-26.5 -70q0 -43 30.5 -69t82.5 -26q59 0 135 29v-149q-81 -31 -166 -31q-51 0 -97.5 12t-86.5 36.5t-64 69t-24 103.5
q0 118 118 209q-187 37 -301 170t-114 352z" />
    <glyph glyph-name="uogonek" unicode="&#x173;" horiz-adv-x="1329" 
d="M1176 1128v-1128h-2l2 -2l-101 -51q-64 -33 -90.5 -65t-26.5 -70q0 -43 30.5 -69t82.5 -26q59 0 135 29v-149q-81 -31 -166 -31q-51 0 -97.5 12t-86.5 36.5t-64 69t-24 103.5q0 142 174 246v102q-55 -71 -144 -111t-190 -40q-100 0 -184.5 31.5t-147 90.5t-98 151.5
t-35.5 207.5v663h232v-628q0 -152 76 -233t206 -81q132 0 208.5 81t76.5 233v628h234z" />
    <glyph glyph-name="Wcircumflex" unicode="&#x174;" horiz-adv-x="2045" 
d="M442 -2l-403 1425h248l295 -1159l319 1159h262l297 -1153l297 1153h250l-422 -1423h-264l-299 1077l-317 -1077zM1307 1698v-182l-293 176l-293 -176v182l293 170z" />
    <glyph glyph-name="wcircumflex" unicode="&#x175;" horiz-adv-x="1689" 
d="M373 0l-353 1128h238l236 -907l239 907h244l229 -903l234 903h229l-350 -1128h-246l-227 834l-228 -834h-245zM1139 1391v-183l-293 176l-293 -176v183l293 170z" />
    <glyph glyph-name="Ycircumflex" unicode="&#x176;" horiz-adv-x="1239" 
d="M504 516l-473 907h260l330 -698l329 698h258l-471 -907v-516h-233v516zM913 1688v-183l-292 176l-293 -176v183l293 170z" />
    <glyph glyph-name="ycircumflex" unicode="&#x177;" horiz-adv-x="1191" 
d="M598 268l330 860h241l-692 -1658h-241l229 548l-445 1110h261zM889 1391v-183l-293 176l-293 -176v183l293 170z" />
    <glyph glyph-name="Ydieresis" unicode="&#x178;" horiz-adv-x="1239" 
d="M504 516l-473 907h260l330 -698l329 698h258l-471 -907v-516h-233v516zM444 1567q-52 0 -87 35t-35 88q0 51 35 86.5t87 35.5q51 0 87 -35.5t36 -86.5q0 -52 -36 -87.5t-87 -35.5zM797 1567q-53 0 -88 35.5t-35 87.5q0 51 35.5 86.5t87.5 35.5q51 0 87 -35.5t36 -86.5
q0 -52 -36 -87.5t-87 -35.5z" />
    <glyph glyph-name="Zacute" unicode="&#x179;" horiz-adv-x="1142" 
d="M1040 1423v-182l-661 -1038h661v-203h-938v182l660 1039h-660v202h938zM330 1677l452 250v-198l-452 -224v172z" />
    <glyph glyph-name="zacute" unicode="&#x17a;" horiz-adv-x="964" 
d="M872 1128v-190l-512 -748h512v-190h-782v190l514 748h-514v190h782zM242 1380l452 250v-198l-452 -224v172z" />
    <glyph glyph-name="Zdotaccent" unicode="&#x17b;" horiz-adv-x="1142" 
d="M1040 1423v-182l-661 -1038h661v-203h-938v182l660 1039h-660v202h938zM571 1567q-52 0 -87 35t-35 88q0 51 35 86.5t87 35.5q51 0 87 -35.5t36 -86.5q0 -52 -36 -87.5t-87 -35.5z" />
    <glyph glyph-name="zdotaccent" unicode="&#x17c;" horiz-adv-x="964" 
d="M872 1128v-190l-512 -748h512v-190h-782v190l514 748h-514v190h782zM483 1270q-53 0 -88 35t-35 88q0 51 35.5 87t87.5 36q51 0 87 -36t36 -87q0 -52 -36 -87.5t-87 -35.5z" />
    <glyph glyph-name="Zcaron" unicode="&#x17d;" horiz-adv-x="1142" 
d="M1040 1423v-182l-661 -1038h661v-203h-938v182l660 1039h-660v202h938zM571 1681l293 177v-183l-293 -170l-292 170v183z" />
    <glyph glyph-name="zcaron" unicode="&#x17e;" horiz-adv-x="964" 
d="M872 1128v-190l-512 -748h512v-190h-782v190l514 748h-514v190h782zM483 1384l293 177v-183l-293 -170l-293 170v183z" />
    <glyph glyph-name="uni018F" unicode="&#x18f;" horiz-adv-x="1605" 
d="M805 197q176 0 295.5 103.5t132.5 281.5h-862q6 -173 125.5 -279t308.5 -106zM805 -14q-200 0 -352.5 78t-239 232t-86.5 366q0 74 8 139h1098q-12 193 -130 310.5t-300 117.5q-139 0 -240 -62t-149 -174h-271q75 209 247.5 329t412.5 120q201 0 357 -91.5t242.5 -257
t86.5 -378.5q0 -324 -188.5 -526.5t-495.5 -202.5z" />
    <glyph glyph-name="florin" unicode="&#x192;" horiz-adv-x="679" 
d="M186 1208q22 195 133.5 284t333.5 89l-20 -195q-107 0 -154.5 -40.5t-56.5 -137.5l-8 -80h207l-19 -190h-209l-114 -1069q-17 -167 -104.5 -240t-244.5 -73h-45l21 192h33q50 0 75 28.5t31 92.5l113 1069h-133l18 190h135z" />
    <glyph glyph-name="uni01FC" unicode="&#x1fc;" horiz-adv-x="1886" 
d="M901 1681l453 250v-198l-453 -224v172zM967 1264l-430 -791h430v791zM1751 1243h-551v-432h490v-180h-490v-449h551v-182h-784v291h-531l-157 -291h-254l784 1425h942v-182z" />
    <glyph glyph-name="uni01FD" unicode="&#x1fd;" horiz-adv-x="2228" 
d="M1577 950q-128 0 -223 -82t-115 -215h666q-3 133 -95.5 215t-232.5 82zM2116 336q-50 -156 -181 -255t-319 -99q-124 0 -232.5 52t-175.5 136v-170h-200v170q-69 -84 -172.5 -136t-227.5 -52q-226 0 -379 165t-153 422t155 417.5t390 160.5q246 0 393 -178v159h194v-159
q86 95 184.5 136.5t223.5 41.5q234 0 382 -155.5t148 -395.5q0 -59 -8 -111h-899q12 -97 65.5 -168.5t124 -105t146.5 -33.5q112 0 185 43t102 115h254zM315 569q0 -175 102 -280t240 -105q67 0 128 25.5t109 73t76.5 120.5t28.5 162q0 88 -28.5 161t-76.5 120t-109 72.5
t-128 25.5q-139 0 -240.5 -100.5t-101.5 -274.5zM1004 1380l452 250v-198l-452 -224v172z" />
    <glyph glyph-name="uni0218" unicode="&#x218;" horiz-adv-x="1236" 
d="M508 -94h211q29 -110 29 -203q0 -256 -232 -256v102q100 0 100 117v43h-108v197zM1114 403q0 -81 -33 -155.5t-93 -133t-155 -93.5t-210 -35q-219 0 -361.5 111t-142.5 296h250q8 -93 73 -152t181 -59q120 0 188 58t68 151q0 55 -26 95t-69.5 65t-100.5 43.5t-119.5 35
t-125 35t-119.5 48t-100.5 70t-69.5 105t-26 148.5q0 186 134.5 296t354.5 110q207 0 339 -103t147 -284h-258q-6 76 -70.5 130.5t-169.5 57.5q-106 3 -173 -48.5t-67 -150.5q0 -51 26 -89t69.5 -62t100 -42.5t119 -35.5t125 -36.5t119 -50t100 -71.5t69.5 -106t26 -148z
" />
    <glyph glyph-name="uni0219" unicode="&#x219;" horiz-adv-x="1093" 
d="M436 -94h211q29 -122 29 -203q0 -256 -232 -256v102q101 0 101 117v43h-109v197zM995 315q0 -145 -118 -239t-314 -94q-200 0 -331.5 104t-139.5 260h242q6 -71 68.5 -119.5t156.5 -48.5q99 0 153 37.5t54 97.5q0 35 -22.5 61.5t-60.5 44t-87 32t-103.5 29t-108.5 31.5
t-103 43.5t-87 60.5t-60.5 87t-22.5 119q0 139 119.5 232.5t314.5 93.5q192 0 309.5 -97.5t126.5 -265.5h-233q-6 75 -62 120.5t-149 45.5q-92 0 -141.5 -34.5t-49.5 -92.5q0 -46 35 -78t91.5 -51.5t125 -37t137.5 -42.5t126 -59.5t94.5 -95.5t39.5 -144z" />
    <glyph glyph-name="uni021A" unicode="&#x21a;" horiz-adv-x="1155" 
d="M467 -94h211q27 -114 27 -203q0 -256 -230 -256v102q100 0 100 117v43h-108v197zM80 1233v190h993v-190h-379v-1233h-233v1233h-381z" />
    <glyph glyph-name="uni021B" unicode="&#x21b;" horiz-adv-x="761" 
d="M270 -94h211q29 -110 29 -203q0 -256 -231 -256v102q100 0 100 117v43h-109v197zM190 313v625h-133v190h133v281h236v-281h274v-190h-274v-625q0 -64 29 -91t102 -27h143v-195h-184q-158 0 -242 74t-84 239z" />
    <glyph glyph-name="uni0259" unicode="&#x259;" horiz-adv-x="1263" 
d="M635 178q120 0 205.5 76.5t103.5 208.5h-625q3 -128 93 -206.5t223 -78.5zM625 -18q-243 0 -396 153.5t-153 401.5q0 62 8 114h862q-12 137 -101 218t-220 81q-190 0 -267 -157h-252q50 156 185.5 255t333.5 99q246 0 404.5 -161t158.5 -423q0 -264 -155.5 -422.5
t-407.5 -158.5z" />
    <glyph glyph-name="uni02BC" unicode="&#x2bc;" horiz-adv-x="495" 
d="M229 936h-163l124 487h254z" />
    <glyph glyph-name="circumflex" unicode="&#x2c6;" horiz-adv-x="626" 
d="M606 1391v-183l-293 176l-293 -176v183l293 170z" />
    <glyph glyph-name="caron" unicode="&#x2c7;" horiz-adv-x="626" 
d="M313 1384l293 177v-183l-293 -170l-293 170v183z" />
    <glyph glyph-name="uni02C9" unicode="&#x2c9;" horiz-adv-x="790" 
d="M20 1300v175h750v-175h-750z" />
    <glyph glyph-name="breve" unicode="&#x2d8;" horiz-adv-x="657" 
d="M637 1507q0 -129 -82.5 -206.5t-226.5 -77.5q-143 0 -225.5 78.5t-82.5 207.5v43h134q0 -73 39.5 -110t134.5 -37t134.5 37t39.5 110h135v-45z" />
    <glyph glyph-name="dotaccent" unicode="&#x2d9;" horiz-adv-x="286" 
d="M143 1270q-53 0 -88 35t-35 88q0 51 35.5 87t87.5 36q51 0 87 -36t36 -87q0 -52 -36 -87.5t-87 -35.5z" />
    <glyph glyph-name="ring" unicode="&#x2da;" horiz-adv-x="487" 
d="M244 1688q99 0 165 -62t66 -164q0 -101 -66 -162t-165 -61q-97 0 -163.5 61.5t-66.5 161.5q0 101 66.5 163.5t163.5 62.5zM244 1360q42 0 71 29.5t29 74.5q0 46 -29 75.5t-71 29.5q-41 0 -70 -29.5t-29 -75.5q0 -45 29 -74.5t70 -29.5z" />
    <glyph glyph-name="ogonek" unicode="&#x2db;" horiz-adv-x="479" 
d="M281 80l86 39l61 -119l-100 -51q-64 -33 -90.5 -65t-26.5 -70q0 -43 30.5 -69t82.5 -26q59 0 135 29v-149q-81 -31 -166 -31q-51 0 -97.5 12t-87 36.5t-64.5 69t-24 103.5q0 172 261 291z" />
    <glyph glyph-name="tilde" unicode="&#x2dc;" horiz-adv-x="729" 
d="M20 1245q17 118 78.5 179t153.5 61q37 0 72 -14t57.5 -31t51.5 -31t56 -14q35 0 59 21.5t30 64.5h131q-17 -118 -78.5 -179t-153.5 -61q-37 0 -72 14.5t-57.5 31.5t-51.5 31.5t-56 14.5q-35 0 -58.5 -22.5t-29.5 -65.5h-132z" />
    <glyph glyph-name="hungarumlaut" unicode="&#x2dd;" horiz-adv-x="747" 
d="M162 1579h203l-193 -348h-152zM502 1579h203l-205 -348h-152z" />
    <glyph glyph-name="pi" unicode="&#x3c0;" horiz-adv-x="1445" 
d="M63 946v182h1309v-182h-158v-946h-231v946h-530v-946h-234v946h-156z" />
    <glyph glyph-name="dvCandrabindu" unicode="&#x901;" horiz-adv-x="0" 
d="M-319 1671q-211 0 -325 106.5t-114 274.5h174q0 -92 69.5 -158.5t195.5 -66.5t195 66.5t69 158.5h174q0 -168 -113.5 -274.5t-324.5 -106.5zM-319 2013q-40 0 -68.5 28t-28.5 68t28.5 68.5t68.5 28.5q41 0 68.5 -28.5t27.5 -68.5t-27.5 -68t-68.5 -28z" />
    <glyph glyph-name="dvAnusvara" unicode="&#x902;" horiz-adv-x="0" 
d="M-309 1698q-58 0 -97.5 39t-39.5 96t39.5 96t97.5 39q57 0 96 -39t39 -96t-39 -96t-96 -39z" />
    <glyph glyph-name="dvVisarga" unicode="&#x903;" horiz-adv-x="503" 
d="M252 858q-57 0 -97 39t-40 96t40 96t97 39t97 -39t40 -96t-40 -96t-97 -39zM252 244q-57 0 -97 39t-40 96t40 96t97 39t97 -39t40 -96t-40 -96t-97 -39z" />
    <glyph glyph-name="dvA" unicode="&#x905;" horiz-adv-x="1701" 
d="M569 934q112 0 175 60.5t63 144.5q0 97 -62.5 155t-156.5 58q-99 0 -165.5 -57t-66.5 -150h-198q0 177 119.5 283t310.5 106q184 0 297.5 -100.5t113.5 -266.5q0 -116 -61.5 -198.5t-177.5 -114.5v-4q53 -10 106 -41h420v707h463v-181h-250v-1335h-213v631l-282 2
q20 -59 20 -125q0 -179 -115 -287t-303 -108q-206 0 -334.5 116t-128.5 303h201q0 -102 69.5 -168.5t178.5 -66.5q108 0 171.5 63.5t63.5 167.5q0 60 -22 105h-4v8q-65 119 -232 119h-84v174h84z" />
    <glyph glyph-name="dvAA" unicode="&#x906;" horiz-adv-x="2306" 
d="M569 934q112 0 175 60.5t63 144.5q0 97 -62.5 155t-156.5 58q-99 0 -165.5 -57t-66.5 -150h-198q0 177 119.5 283t310.5 106q184 0 297.5 -100.5t113.5 -266.5q0 -116 -61.5 -198.5t-177.5 -114.5v-4q53 -10 106 -41h420v707h1081v-181h-249v-1335h-215v1335h-404v-1335
h-213v631l-282 2q20 -59 20 -125q0 -179 -115 -287t-303 -108q-206 0 -334.5 116t-128.5 303h201q0 -102 69.5 -168.5t178.5 -66.5q108 0 171.5 63.5t63.5 167.5q0 60 -22 105h-4v8q-65 119 -232 119h-84v174h84z" />
    <glyph glyph-name="dvI" unicode="&#x907;" horiz-adv-x="1187" 
d="M-66 1335v181h1319v-181h-299v-372h-366q-42 0 -77 -6.5t-68.5 -22t-52.5 -46.5t-19 -75q0 -75 53.5 -110t140.5 -35h90q66 0 124.5 -10.5t114 -37t95.5 -66t64 -102t24 -141.5q0 -149 -96 -245.5t-268 -96.5q-69 0 -128 17.5t-97.5 45.5t-61.5 53t-37 50v-297h-203v524
h193q9 -104 81 -167.5t193 -63.5q105 0 162 53t57 133q0 55 -21 94.5t-58 61t-80.5 31.5t-96.5 10h-114q-68 2 -128 20t-110 53t-79 93.5t-29 134.5q0 81 30.5 141t84.5 94.5t118.5 51t140.5 16.5h218v217h-814z" />
    <glyph glyph-name="dvII" unicode="&#x908;" horiz-adv-x="1187" 
d="M389 135v-297h-203v524h193q9 -104 81 -167.5t193 -63.5q105 0 162 53t57 133q0 55 -21 94.5t-58 61t-80.5 31.5t-96.5 10h-114q-68 2 -128 20t-110 53t-79 93.5t-29 134.5q0 81 30.5 141t84.5 94.5t118.5 51t140.5 16.5h218v217h-814v181h816v145q0 87 19.5 158.5
t61 129.5t112.5 90t167 32q169 0 261.5 -100t86.5 -267h-188q3 85 -39.5 135.5t-116.5 50.5q-164 0 -164 -227v-147h303v-181h-299v-372h-366q-42 0 -77 -6.5t-68.5 -22t-52.5 -46.5t-19 -75q0 -75 53.5 -110t140.5 -35h90q66 0 124.5 -10.5t114 -37t95.5 -66t64 -102
t24 -141.5q0 -149 -96 -245.5t-268 -96.5q-69 0 -128 17.5t-97.5 45.5t-61.5 53t-37 50z" />
    <glyph glyph-name="dvU" unicode="&#x909;" horiz-adv-x="1171" 
d="M-49 1335v181h1270v-181h-230v-186q0 -125 -59.5 -207.5t-155.5 -101.5v-4q125 -29 200 -136t75 -251q0 -197 -122 -320t-333 -123q-220 0 -359 128.5t-139 336.5h205q0 -117 80.5 -194.5t202.5 -77.5q119 0 190.5 74t71.5 192q0 51 -16 97.5t-47.5 86.5t-87 64
t-126.5 24h-102v189h74q116 0 178.5 63.5t62.5 171.5v174h-833z" />
    <glyph glyph-name="dvUU" unicode="&#x90a;" horiz-adv-x="1763" 
d="M-49 1335v181h1859v-181h-819v-186q0 -125 -59.5 -207.5t-155.5 -101.5v-4h408q139 0 243 -40t168 -132.5t64 -231.5q0 -184 -108 -282.5t-287 -98.5q-33 0 -103 8v164q23 -2 68 -2q100 0 161.5 53t61.5 166q0 115 -74 169.5t-192 54.5h-195q58 -99 58 -226
q0 -190 -122 -311t-331 -121q-220 0 -359 128.5t-139 336.5h205q0 -117 80.5 -194.5t202.5 -77.5q119 0 190.5 74t71.5 192q0 51 -16 97.5t-47.5 86.5t-87 64t-126.5 24h-102v189h74q116 0 178.5 63.5t62.5 171.5v174h-833z" />
    <glyph glyph-name="dvvR" unicode="&#x90b;" horiz-adv-x="2109" 
d="M1008 0v500l-508 -500h-271v12l779 707q-24 105 -106.5 171t-201.5 66q-156 0 -250 -97t-94 -259h-215q0 242 136.5 390.5t361.5 148.5q246 0 369 -183v379h-1057v181h2208v-181h-953v-430h346q160 0 160 142v106h186v-723h-43q-105 0 -162 -54.5t-57 -139.5
q0 -98 63 -144.5t163 -46.5q54 0 116 16v-172q-74 -16 -145 -16q-177 0 -290 89.5t-113 254.5q0 130 75.5 218t206.5 118v221q-84 -41 -190 -41h-316v-733h-198z" />
    <glyph glyph-name="dvvL" unicode="&#x90c;" horiz-adv-x="1847" 
d="M-49 1335v181h1943v-181h-487v-239q140 -36 223.5 -157.5t83.5 -307.5q0 -117 -33 -205h-14q-122 0 -183 -54.5t-61 -142.5q0 -96 63.5 -142t164.5 -46q65 0 118 16v-172q-69 -16 -143 -16q-182 0 -295.5 90t-113.5 260q0 123 77.5 212.5t198.5 111.5q8 39 8 90
q0 125 -61 205t-174 80q-123 0 -185.5 -91.5t-62.5 -244.5v-43h-180v43q0 150 -60 243t-178 93q-119 0 -184.5 -80t-65.5 -209q0 -149 77.5 -233.5t217.5 -84.5q17 0 57 4v-188q-27 -2 -69 -2q-240 0 -370 138.5t-130 367.5q0 224 122.5 350.5t315.5 126.5q75 0 137 -24
t103.5 -65t69 -88.5t43.5 -103.5h6q29 99 94.5 172t173.5 99v237h-1247z" />
    <glyph glyph-name="dvEcandra" unicode="&#x90d;" horiz-adv-x="1335" 
d="M-49 1335v181h1433v-181h-215v-215q0 -237 -102 -341t-338 -77v193q122 -12 177 43t55 188v209h-549v-784q0 -156 73.5 -242t210.5 -86q128 0 199.5 75t71.5 208h211q0 -220 -128.5 -343.5t-349.5 -123.5q-248 0 -374.5 139.5t-126.5 378.5l-2 778h-246zM672 1704
q-111 0 -197 30.5t-137.5 83.5t-78 120.5t-26.5 146.5h187q0 -92 63.5 -155.5t188.5 -63.5t189.5 64t64.5 155h184q0 -79 -26.5 -146.5t-78.5 -120.5t-137.5 -83.5t-195.5 -30.5z" />
    <glyph glyph-name="dvE" unicode="&#x90f;" horiz-adv-x="1335" 
d="M-49 1335v181h1433v-181h-215v-215q0 -237 -102 -341t-338 -77v193q122 -12 177 43t55 188v209h-549v-784q0 -156 73.5 -242t210.5 -86q128 0 199.5 75t71.5 208h211q0 -220 -128.5 -343.5t-349.5 -123.5q-248 0 -374.5 139.5t-126.5 378.5l-2 778h-246z" />
    <glyph glyph-name="dvAI" unicode="&#x910;" horiz-adv-x="1335" 
d="M700 39q-248 0 -374.5 139.5t-126.5 378.5l-2 778h-246v181h1001q-60 93 -103.5 150t-81 95t-79 55t-81 23t-103.5 6h-92v176h88q79 -1 129.5 -6t107.5 -23t99.5 -50.5t95 -89.5t105 -137.5t120.5 -198.5h227v-181h-215v-215q0 -237 -102 -341t-338 -77v193
q122 -12 177 43t55 188v209h-549v-784q0 -156 73.5 -242t210.5 -86q128 0 199.5 75t71.5 208h211q0 -220 -128.5 -343.5t-349.5 -123.5z" />
    <glyph glyph-name="dvOcandra" unicode="&#x911;" horiz-adv-x="2318" 
d="M569 934q112 0 175 60.5t63 144.5q0 97 -62.5 155t-156.5 58q-99 0 -165.5 -57t-66.5 -150h-198q0 177 119.5 283t310.5 106q184 0 297.5 -100.5t113.5 -266.5q0 -116 -61.5 -198.5t-177.5 -114.5v-4q53 -10 106 -41h420v707h1081v-181h-249v-1335h-215v1335h-404v-1335
h-213v631l-282 2q20 -59 20 -125q0 -179 -115 -287t-303 -108q-206 0 -334.5 116t-128.5 303h201q0 -102 69.5 -168.5t178.5 -66.5q108 0 171.5 63.5t63.5 167.5q0 60 -22 105h-4v8q-65 119 -232 119h-84v174h84zM1706 1704q-111 0 -196.5 30.5t-137.5 83.5t-78 120.5
t-26 146.5h186q0 -92 63.5 -155.5t188.5 -63.5t189.5 64t64.5 155h184q0 -79 -26.5 -146.5t-78.5 -120.5t-137.5 -83.5t-195.5 -30.5z" />
    <glyph glyph-name="dvO" unicode="&#x913;" horiz-adv-x="2318" 
d="M1499 0h-213v631l-282 2q20 -59 20 -125q0 -179 -115 -287t-303 -108q-206 0 -334.5 116t-128.5 303h201q0 -102 69.5 -168.5t178.5 -66.5q108 0 171.5 63.5t63.5 167.5q0 60 -22 105h-4v8q-65 119 -232 119h-84v174h84q112 0 175 60.5t63 144.5q0 97 -62.5 155
t-156.5 58q-99 0 -165.5 -57t-66.5 -150h-198q0 177 119.5 283t310.5 106q184 0 297.5 -100.5t113.5 -266.5q0 -116 -61.5 -198.5t-177.5 -114.5v-4q53 -10 106 -41h420v707h615q-60 93 -103.5 150t-81 95t-79.5 55t-81.5 23t-103.5 6h-92v176h88q79 -1 129.5 -6t107.5 -23
t99.5 -50.5t95 -89.5t105 -137.5t120.5 -198.5h262v-181h-249v-1335h-215v1335h-404v-1335z" />
    <glyph glyph-name="dvAU" unicode="&#x914;" horiz-adv-x="2318" 
d="M1499 0h-213v631l-282 2q20 -59 20 -125q0 -179 -115 -287t-303 -108q-206 0 -334.5 116t-128.5 303h201q0 -102 69.5 -168.5t178.5 -66.5q108 0 171.5 63.5t63.5 167.5q0 60 -22 105h-4v8q-65 119 -232 119h-84v174h84q112 0 175 60.5t63 144.5q0 97 -62.5 155
t-156.5 58q-99 0 -165.5 -57t-66.5 -150h-198q0 177 119.5 283t310.5 106q184 0 297.5 -100.5t113.5 -266.5q0 -116 -61.5 -198.5t-177.5 -114.5v-4q53 -10 106 -41h420v707h629q-121 90 -184 124t-119.5 44t-175.5 10h-95v137h91q88 0 130.5 -3t97 -18t102 -45.5
t118.5 -87.5q-38 69 -72.5 120.5t-63.5 87.5t-60.5 59.5t-55.5 37t-59 20t-60.5 8t-68.5 1.5h-99v139h95q48 0 78.5 -1t68.5 -6.5t62.5 -14.5t57 -26.5t56 -40.5t56 -59.5t61 -80.5t65.5 -105.5t75.5 -133.5t86.5 -166h264v-181h-249v-1335h-215v1335h-404v-1335z" />
    <glyph glyph-name="dvKA" unicode="&#x915;" horiz-adv-x="2019" 
d="M920 0v375q-47 -89 -137.5 -142t-217.5 -53q-194 0 -313 130.5t-119 346.5q0 213 121.5 342t318.5 129q124 0 212 -51t135 -137v395h-969v181h2115v-181h-940v-399q45 89 130 140.5t206 51.5q189 0 306.5 -131t117.5 -335q0 -218 -119 -343.5t-307 -125.5q-74 0 -131 14
v170q31 -8 76 -8q116 0 190 77t74 211q0 128 -76.5 207.5t-193.5 79.5q-70 0 -124 -26t-85.5 -70.5t-47.5 -97.5t-16 -111v-639h-206zM635 360q70 0 126.5 26.5t90 69.5t51 94t17.5 103q0 55 -17.5 105.5t-51 92.5t-89.5 67.5t-127 25.5q-122 0 -203.5 -79.5t-81.5 -209.5
q0 -135 80 -215t205 -80z" />
    <glyph glyph-name="dvKHA" unicode="&#x916;" horiz-adv-x="1927" 
d="M1268 430q61 0 109.5 22.5t77 59.5t43.5 81t15 91q0 102 -62 178t-183 76q-107 0 -179.5 -67.5t-72.5 -182.5q0 -120 71.5 -189t180.5 -69zM1225 264q-37 0 -74 6q-64 -125 -182 -201.5t-279 -76.5q-244 0 -387 139t-143 387v301h67q137 0 212 67t75 228v221h-563v181
h2025v-181h-250v-1335h-213v410q-92 -146 -288 -146zM696 178q103 0 174.5 45t112.5 117q-76 57 -118 145.5t-42 202.5q0 184 114 300t288 116q196 0 288 -146v377h-784v-248q0 -108 -27 -189.5t-76.5 -130.5t-112.5 -74t-140 -29v-170q0 -142 86 -229t237 -87z" />
    <glyph glyph-name="dvGA" unicode="&#x917;" horiz-adv-x="1568" 
d="M1153 0v1335h-334v-526q0 -81 -20.5 -149t-63 -121t-113 -83t-163.5 -30q-178 0 -273.5 100t-95.5 271q0 43 2 63h209v-63q0 -80 36 -133.5t116 -53.5q151 0 151 191v534h-653v181h1665v-181h-250v-1335h-213z" />
    <glyph glyph-name="dvGHA" unicode="&#x918;" horiz-adv-x="1447" 
d="M662 385q158 0 264 98t106 252v600h-626v-129q0 -110 59.5 -166.5t191.5 -56.5h93v-174h-109q-133 0 -198.5 -56.5t-65.5 -148.5q0 -106 79 -162.5t206 -56.5zM-49 1335v181h1546v-181h-248v-1335h-217v420q-63 -100 -173 -155.5t-247 -55.5q-200 0 -326 97.5t-126 277.5
q0 123 74 204t182 103v4q-102 20 -164 93.5t-62 207.5v139h-239z" />
    <glyph glyph-name="dvNGA" unicode="&#x919;" horiz-adv-x="1376" 
d="M1217 668q-52 0 -88.5 36t-36.5 87q0 52 36 88t89 36t88.5 -35.5t35.5 -88.5q0 -51 -36 -87t-88 -36zM-49 1335v181h1474v-181h-464v-372h-367q-41 0 -76 -6.5t-68 -22t-52 -46t-19 -73.5q0 -78 53 -112.5t137 -34.5h93q65 0 123.5 -11t113.5 -37t94.5 -65t63.5 -100
t24 -138q0 -160 -114 -255t-326 -95q-228 0 -366 107t-142 288h213q2 -105 78.5 -168t210.5 -63q118 0 181 51.5t63 136.5q0 53 -20.5 92t-57 61t-81 32t-97.5 10h-80q-54 0 -104 8t-101.5 29.5t-89 55t-61 88.5t-23.5 126q0 78 30.5 136.5t84 92t118 50t138.5 16.5h217v219
h-801z" />
    <glyph glyph-name="dvCA" unicode="&#x91a;" horiz-adv-x="1515" 
d="M-49 1335v181h1614v-181h-250v-1335h-215v391q-59 -93 -158.5 -144.5t-224.5 -51.5q-185 0 -307.5 108.5t-122.5 294.5q0 201 155 303h-340v170h748v-170h-76q-128 0 -206.5 -75t-78.5 -193q0 -122 82.5 -191t206.5 -69q144 1 233 101.5t89 252.5v608h-1149z" />
    <glyph glyph-name="dvCHA" unicode="&#x91b;" horiz-adv-x="1677" 
d="M-49 1335v181h1775v-181h-430v-225q131 -30 210 -138.5t79 -281.5q0 -295 -208 -467t-560 -172q-307 0 -490.5 116.5t-183.5 334.5q0 134 73.5 219t193.5 113v6q-100 19 -162 93t-62 208v194h-235zM819 236q263 0 419.5 122.5t156.5 339.5q0 123 -58.5 193t-140.5 70
q-77 0 -133.5 -54.5t-56.5 -161.5q0 -82 32 -180h-178q-35 93 -35 203q0 148 75.5 232.5t197.5 109.5v225h-699v-186q0 -109 57.5 -166t182.5 -57h43v-174h-39q-141 0 -212 -64.5t-71 -165.5q0 -139 119.5 -212.5t339.5 -73.5z" />
    <glyph glyph-name="dvJA" unicode="&#x91c;" horiz-adv-x="1732" 
d="M-49 1335v181h1831v-181h-250v-1335h-215v831h-344v-155q0 -190 -113 -308t-305 -118q-197 0 -306.5 117t-109.5 309v340h217v-336q0 -110 53.5 -176t147.5 -66q96 0 151.5 66t55.5 176v336h553v319h-1366z" />
    <glyph glyph-name="dvJHA" unicode="&#x91d;" horiz-adv-x="1751" 
d="M565 668h774v667h-385v-372h-366q-42 0 -77 -6.5t-68.5 -22t-52.5 -46.5t-19 -75q0 -75 53.5 -110t140.5 -35zM1339 0v504l-344 2q76 -86 76 -215q0 -136 -90.5 -222.5t-257.5 -86.5q-70 0 -129 16.5t-97.5 43t-60 47t-37.5 42.5v-293h-202v512h192q11 -91 81 -150
t189 -59q105 0 159 50t54 126q0 93 -65.5 145t-190.5 52h-114q-68 2 -128 20t-110 53t-79 93.5t-29 134.5q0 81 30.5 141t84.5 94.5t118.5 51t140.5 16.5h218v217h-797v181h1849v-181h-250v-1335h-211z" />
    <glyph glyph-name="dvNYA" unicode="&#x91e;" horiz-adv-x="1673" 
d="M-49 1335v181h1771v-181h-249v-1335h-216v565h-200q-24 -182 -146.5 -292.5t-318.5 -110.5t-317.5 104t-141.5 264h203q22 -80 88.5 -133t169.5 -53q131 0 202.5 86.5t71.5 216.5q0 127 -72 214t-202 87q-105 0 -171 -54t-87 -132h-203q18 161 139.5 264.5t319.5 103.5
q191 0 312.5 -105t150.5 -277h202v587h-1306z" />
    <glyph glyph-name="dvTTA" unicode="&#x91f;" horiz-adv-x="1329" 
d="M-49 1335v181h1427v-181h-411v-395h-230q-83 0 -152.5 -21.5t-123 -63.5t-83.5 -109.5t-30 -153.5q0 -146 96 -239t248 -93q156 0 252 97t96 251h205q0 -240 -150.5 -387t-398.5 -147q-247 0 -405 144t-158 374q0 250 161 390t431 140h31v213h-805z" />
    <glyph glyph-name="dvTTHA" unicode="&#x920;" horiz-adv-x="1380" 
d="M690 266q153 0 249.5 95t96.5 243t-96 241t-250 93q-151 0 -247.5 -93.5t-96.5 -240.5q0 -148 96.5 -243t247.5 -95zM690 86q-157 0 -283.5 63t-200 182t-73.5 273q0 207 126.5 341.5t322.5 166.5v223h-631v181h1479v-181h-635v-223q199 -31 326.5 -165t127.5 -343
q0 -154 -73.5 -273t-200.5 -182t-285 -63z" />
    <glyph glyph-name="dvDDA" unicode="&#x921;" horiz-adv-x="1171" 
d="M-49 1335v181h1268v-181h-269v-372h-356q-41 0 -76 -6.5t-68 -22t-52 -46t-19 -73.5q0 -78 53 -112.5t137 -34.5h93q65 0 123.5 -11t113.5 -37t94.5 -65t63.5 -100t24 -138q0 -160 -114 -255t-326 -95q-228 0 -366 107t-142 288h213q2 -105 78.5 -168t210.5 -63
q118 0 181 51.5t63 136.5q0 53 -20.5 92t-57 61t-81 32t-97.5 10h-80q-54 0 -104 8t-101.5 29.5t-89 55t-61 88.5t-23.5 126q0 78 30.5 136.5t84 92t118 50t138.5 16.5h208v219h-792z" />
    <glyph glyph-name="dvDDHA" unicode="&#x922;" horiz-adv-x="1320" 
d="M-49 1335v181h1419v-181h-364v-354h-207q-204 0 -331.5 -106.5t-127.5 -307.5q0 -178 115 -290.5t311 -112.5q139 0 229 68t90 180q0 80 -50 131t-128 51q-68 0 -115 -43.5t-47 -112.5q0 -21 7 -39h-158q-6 35 -6 68q0 132 91.5 207.5t235.5 75.5q162 0 258.5 -93.5
t96.5 -244.5q0 -186 -136 -296t-372 -110q-179 0 -321 67.5t-225 197.5t-83 302q0 136 45.5 243.5t127 176t190 104.5t237.5 36h70v202h-852z" />
    <glyph glyph-name="dvNNA" unicode="&#x923;" horiz-adv-x="1775" 
d="M590 535q92 0 144 60t52 159v581h-395v-581q0 -98 54 -158.5t145 -60.5zM-49 1335v181h1874v-181h-250v-1335h-215v1335h-363v-561q0 -189 -106 -305.5t-303 -116.5q-194 0 -301 118t-107 304v561h-229z" />
    <glyph glyph-name="dvTA" unicode="&#x924;" horiz-adv-x="1429" 
d="M-49 1335v181h1528v-181h-250v-1335h-215v831h-287q-175 0 -276 -83.5t-101 -243.5q0 -156 89 -243t257 -87h43v-170h-73q-117 0 -213.5 31t-168.5 92t-111.5 158.5t-39.5 222.5q0 129 44 228t124 159.5t184.5 90.5t231.5 30h297v319h-1063z" />
    <glyph glyph-name="dvTHA" unicode="&#x925;" horiz-adv-x="1585" 
d="M1169 0v444q-46 -104 -165 -177.5t-293 -73.5q-260 0 -412 152t-152 413q0 58 9 119h194q410 0 410 272q0 87 -52 144t-141 57q-93 0 -146.5 -56.5t-53.5 -152.5q0 -30 8 -84h-195q-8 58 -8 90q0 180 111.5 283.5t285.5 103.5q176 0 284 -108.5t108 -282.5
q0 -205 -142 -313.5t-389 -108.5h-76q5 -157 102.5 -252.5t284.5 -95.5q182 0 305 114.5t123 311.5v717h465v-181h-250v-1335h-215z" />
    <glyph glyph-name="dvDA" unicode="&#x926;" horiz-adv-x="1249" 
d="M-49 1335v181h1347l-2 -181h-276v-391h-322q-152 0 -249 -79.5t-97 -223.5q0 -131 77.5 -209t209.5 -78q66 0 123 25.5t97 84.5t40 142h199v-649h-211v367q-45 -66 -125.5 -104t-181.5 -38q-196 0 -321.5 123t-125.5 342q0 117 42 209.5t116.5 151t172.5 89.5t214 31h127
v207h-854z" />
    <glyph glyph-name="dvDHA" unicode="&#x927;" horiz-adv-x="1470" 
d="M621 188q-127 0 -227.5 39.5t-162 123t-61.5 198.5q0 125 73.5 202.5t172.5 94.5v6q-110 28 -185 113.5t-75 224.5q0 153 100.5 248.5t259.5 95.5q162 0 255 -92t93 -240q0 -26 -4 -72h-162q2 25 2 48q0 76 -47.5 126t-130.5 50q-84 0 -133 -53t-49 -134
q0 -109 82.5 -168t214.5 -59h119v-174h-111q-123 0 -189.5 -52.5t-66.5 -142.5q0 -100 78 -152t205 -52q173 0 284 111t111 288v750h461v-181h-246v-1335h-215v416q-64 -108 -179.5 -168t-266.5 -60z" />
    <glyph glyph-name="dvNA" unicode="&#x928;" horiz-adv-x="1636" 
d="M553 393q101 0 166 64t65 164q0 99 -65 163t-166 64q-104 0 -171 -64.5t-67 -165.5q0 -100 66 -162.5t172 -62.5zM-49 1335v181h1735v-181h-250v-1335h-215v848h-357q92 -106 92 -256q0 -176 -115.5 -278.5t-291.5 -102.5q-183 0 -305.5 111t-122.5 296q0 192 126 301
t320 109h654v307h-1270z" />
    <glyph glyph-name="dvPA" unicode="&#x92a;" horiz-adv-x="1353" 
d="M662 563q130 0 204 84.5t74 210.5v477h-561v-440q0 -157 70 -244.5t213 -87.5zM-49 1335v181h1452v-181h-250v-1335h-213v537q-107 -156 -332 -156q-216 0 -330 139.5t-114 374.5v440h-213z" />
    <glyph glyph-name="dvPHA" unicode="&#x92b;" horiz-adv-x="2017" 
d="M641 563q122 0 191 81.5t69 203.5v487h-522v-450q0 -151 65.5 -236.5t196.5 -85.5zM-49 1335v181h2115v-181h-950v-399q47 88 135.5 140t212.5 52q187 0 304.5 -129t117.5 -331q0 -221 -118.5 -348t-307.5 -127q-75 0 -137 16v168q42 -10 84 -10q116 0 189 78.5t73 211.5
q0 128 -76 207.5t-194 79.5q-95 0 -161 -48.5t-94 -120.5t-28 -159v-616h-215v532q-101 -151 -311 -151q-207 0 -316.5 136.5t-109.5 367.5v450h-213z" />
    <glyph glyph-name="dvBA" unicode="&#x92c;" horiz-adv-x="1411" 
d="M1004 0v358q-52 -87 -148 -138.5t-225 -51.5q-213 0 -355.5 136t-142.5 355q0 218 140 354t354 136q126 0 222.5 -52.5t154.5 -138.5v377h-1053v181h1507v-181h-248v-1335h-206zM670 1006q-138 0 -232 -82l527 -443q49 82 49 183q0 65 -22.5 125.5t-64 109t-108.5 78
t-149 29.5zM672 324q140 0 231 84l-530 442q-51 -79 -51 -191q0 -153 101.5 -244t248.5 -91z" />
    <glyph glyph-name="dvBHA" unicode="&#x92d;" horiz-adv-x="1662" 
d="M541 365q92 0 142 64t50 179v152h-168q-100 0 -160.5 -53.5t-60.5 -145.5q0 -89 55.5 -142.5t141.5 -53.5zM543 182q-180 0 -290 104.5t-110 274.5q0 178 117 276.5t299 98.5h174v182q0 109 -40.5 170.5t-125.5 61.5q-74 0 -120 -51.5t-46 -139.5q0 -33 9 -74h-215
q-9 56 -9 82q0 165 98.5 266t274.5 101q195 0 285 -121.5t90 -331.5v-145h311v580h467v-181h-252v-1335h-215v760h-311v-142q0 -208 -101.5 -322t-289.5 -114z" />
    <glyph glyph-name="dvMA" unicode="&#x92e;" horiz-adv-x="1644" 
d="M489 365q92 0 143.5 64.5t51.5 178.5v152h-170q-99 0 -160 -53.5t-61 -145.5q0 -89 55 -142.5t141 -53.5zM1227 936v399h-342v-399h342zM-49 1335v181h1741v-181h-250v-1335h-215v760h-342v-142q0 -208 -101.5 -322t-291.5 -114q-180 0 -289 104t-109 275
q0 178 116 276.5t298 98.5h176v399h-733z" />
    <glyph glyph-name="dvYA" unicode="&#x92f;" horiz-adv-x="1521" 
d="M723 391q166 0 274.5 103.5t108.5 265.5v575h-379v-164q0 -374 -383 -395v-8q0 -173 100 -275t279 -102zM-49 1335v181h1620v-181h-250v-1335h-215v410q-62 -91 -170.5 -145t-257.5 -54q-259 0 -402 155.5t-143 421.5q0 52 6 105h27q177 0 262.5 74.5t85.5 240.5v127
h-563z" />
    <glyph glyph-name="dvRA" unicode="&#x930;" horiz-adv-x="1093" 
d="M-49 1335v181h1192v-181h-225v-170q0 -236 -115 -365.5t-357 -129.5h-77v-256q0 -113 51 -180.5t151 -67.5q93 0 147 62.5t54 166.5v45h207v-39q0 -192 -107.5 -305.5t-296.5 -113.5q-202 0 -309.5 122t-107.5 320v422h213q334 0 334 319v170h-754z" />
    <glyph glyph-name="dvRxA" unicode="&#x931;" horiz-adv-x="1093" 
d="M-49 1335v181h1192v-181h-225v-170q0 -236 -115 -365.5t-357 -129.5h-77v-256q0 -113 51 -180.5t151 -67.5q93 0 147 62.5t54 166.5v45h207v-39q0 -192 -107.5 -305.5t-296.5 -113.5q-202 0 -309.5 122t-107.5 320v422h213q334 0 334 319v170h-754zM231 -358
q-57 0 -96 38t-39 95q0 58 39 97.5t96 39.5q59 0 98.5 -39.5t39.5 -97.5q0 -57 -39.5 -95t-98.5 -38z" />
    <glyph glyph-name="dvLA" unicode="&#x932;" horiz-adv-x="1857" 
d="M1225 117q-16 0 -70 4v188q40 -4 57 -4q138 0 216.5 87t78.5 229q0 128 -62.5 209t-178.5 81q-123 0 -185.5 -91.5t-62.5 -244.5v-36h-180v36q0 150 -60 243t-178 93q-120 0 -185 -80t-65 -210q0 -142 78.5 -229t216.5 -87q17 0 57 4v-188q-54 -4 -69 -4
q-160 0 -274.5 67t-170 180t-55.5 261q0 223 122.5 349t315.5 126q76 0 138 -23.5t104 -64.5t69.5 -87.5t43.5 -101.5h6q20 66 53.5 118.5t94.5 95.5t141 57v241h-1270v181h1954v-181h-473v-254q134 -41 213 -159t79 -297q0 -148 -55.5 -261t-169.5 -180t-274 -67z" />
    <glyph glyph-name="dvLLA" unicode="&#x933;" horiz-adv-x="2021" 
d="M625 354q124 0 202 78t78 203q0 127 -77.5 207t-202.5 80q-124 0 -203.5 -80t-79.5 -209q0 -125 80 -202t203 -77zM1395 354q124 0 203 77t79 202q0 130 -78 209.5t-202 79.5q-125 0 -203 -80t-78 -207q0 -125 77.5 -203t201.5 -78zM1425 170q-149 0 -258 74.5
t-153 197.5h-8q-42 -123 -151.5 -197.5t-258.5 -74.5q-199 0 -331 129t-132 336q0 211 131.5 341t329.5 130q146 0 251.5 -71t162.5 -197h6q47 108 132.5 176.5t203.5 85.5v235h-1399v181h2117v-181h-509v-245q148 -41 238.5 -161.5t90.5 -293.5q0 -207 -132 -336t-331 -129
z" />
    <glyph glyph-name="dvVA" unicode="&#x935;" horiz-adv-x="1376" 
d="M653 348q77 0 139 27.5t99 72.5t56.5 97.5t19.5 107.5v2q0 58 -19.5 111.5t-56.5 98t-98.5 71.5t-139.5 27q-133 0 -221 -84.5t-88 -221.5q0 -140 86.5 -224.5t222.5 -84.5zM1425 1335h-249v-1335h-209v371q-53 -91 -147 -143t-222 -52q-210 0 -337.5 134.5t-127.5 353.5
q0 210 129 341.5t336 131.5q128 0 222 -51.5t147 -141.5v391h-1016v181h1474v-181z" />
    <glyph glyph-name="dvSHA" unicode="&#x936;" horiz-adv-x="1691" 
d="M623 -16q-215 0 -334 125.5t-119 339.5v368h295q80 0 147.5 17t121 50.5t84 91t30.5 132.5q0 109 -59.5 174.5t-161.5 65.5t-161.5 -65.5t-59.5 -174.5q0 -26 4 -84h-213q-9 70 -9 90q0 189 119.5 304.5t319.5 115.5q199 0 318.5 -116t119.5 -324q0 -113 -40 -201.5
t-111.5 -144.5t-166 -84.5t-206.5 -28.5h-154v-201q0 -120 56 -192t173 -72q101 0 159.5 66.5t58.5 175.5v28h208v-30q0 -199 -112.5 -312.5t-306.5 -113.5zM1274 0v1516h467v-181h-250v-1335h-217z" />
    <glyph glyph-name="dvSSA" unicode="&#x937;" horiz-adv-x="1372" 
d="M664 549q104 0 175.5 50.5t100.5 133.5l-569 441v-285q0 -159 73.5 -249.5t219.5 -90.5zM961 883v452h-586zM-49 1335v181h1470v-181h-250v-1335h-210v528q-106 -161 -340 -161q-148 0 -252 67.5t-154.5 185t-50.5 275.5v440h-213z" />
    <glyph glyph-name="dvSA" unicode="&#x938;" horiz-adv-x="1683" 
d="M883 1163q0 -181 -99 -301h484v473h-385v-172zM-49 1335v181h1782v-181h-252v-1335h-213v686h-899v-270q0 -113 52 -181.5t154 -68.5q96 0 150.5 63t54.5 166v25h207q2 -14 2 -35q0 -186 -109 -294.5t-300 -108.5q-204 0 -313 123t-109 321v416h178q168 0 251 85.5
t83 235.5v172h-719z" />
    <glyph glyph-name="dvHA" unicode="&#x939;" horiz-adv-x="1200" 
d="M1090 135q-21 -152 -145 -252t-318 -100q-225 0 -354.5 128t-129.5 331q0 124 54.5 221t154.5 155q-159 80 -159 246q0 125 90 192.5t241 67.5h238v211h-811v181h1296v-181h-280v-366h-369q-85 0 -138.5 -35t-53.5 -111q0 -104 114 -145q58 10 111 10q105 0 190 -28.5
t139.5 -78t87 -111t42.5 -132.5h-205q-17 71 -84 124.5t-174 53.5q-126 0 -199.5 -78t-73.5 -200q0 -123 73.5 -200t199.5 -77q102 0 169.5 51.5t88.5 122.5h205z" />
    <glyph glyph-name="dvNukta" unicode="&#x93c;" horiz-adv-x="0" 
d="M-690 -371q-57 0 -96 38t-39 95q0 58 39 98t96 40q58 0 97.5 -39.5t39.5 -98.5q0 -57 -39 -95t-98 -38z" />
    <glyph glyph-name="dvAvagraha" unicode="&#x93d;" horiz-adv-x="1191" 
d="M143 117v182h480q74 0 113.5 31.5t39.5 83.5q0 41 -28 84.5t-73 84.5t-99.5 84.5t-109 92.5t-99.5 101.5t-73 118.5t-28 136q0 131 88.5 195.5t231.5 64.5h430v-182h-379q-70 0 -111 -23.5t-41 -85.5q0 -42 28 -86.5t73 -85.5t99 -84.5t108 -92.5t99 -101t73 -117.5
t28 -134.5q0 -119 -84 -192.5t-233 -73.5h-533z" />
    <glyph glyph-name="dvmAA" unicode="&#x93e;" 
d="M201 0v1335h-250v181h715v-181h-250v-1335h-215z" />
    <glyph glyph-name="dvmI" unicode="&#x93f;" 
d="M416 1335v-1335h-215v1335h-250v181h250q4 136 68.5 241.5t175 171t253.5 98.5t310 33t312.5 -36.5t256.5 -105.5t174.5 -176.5t63.5 -240.5v-35h-216v31q0 82 -35 149t-93 110.5t-136 73t-159.5 42t-167.5 12.5q-87 0 -166.5 -10t-158 -36.5t-135.5 -67t-94 -105.5
t-40 -149h252v-181h-250z" />
    <glyph glyph-name="dvmII" unicode="&#x940;" 
d="M-416 1466v123q0 103 22.5 186t70.5 148.5t130.5 101t194.5 35.5q114 0 196 -35.5t128.5 -101.5t68 -148t21.5 -186v-73h250v-181h-250v-1335h-215v1335h-250v181h256v83q0 43 -5 80t-19 75t-36 65t-59 44t-86 17t-87 -17t-60.5 -44t-37 -65t-19.5 -75.5t-5 -79.5v-133
h-209z" />
    <glyph glyph-name="dvmU" unicode="&#x941;" horiz-adv-x="0" 
d="M-412 -637q-80 0 -151 15t-134 49.5t-108.5 85t-70.5 125.5t-23 167h190q-3 -70 18 -123.5t61.5 -86t93.5 -48.5t118 -16q112 0 177 51t65 144q0 73 -48.5 123.5t-135.5 50.5h-56v168h56q177 0 271.5 -94t94.5 -250q0 -168 -112 -264.5t-306 -96.5z" />
    <glyph glyph-name="dvmUU" unicode="&#x942;" horiz-adv-x="0" 
d="M-369 -616q-155 0 -254.5 86t-99.5 243q0 161 112.5 254.5t295.5 93.5q131 0 231 -45t160.5 -125.5t90.5 -184t30 -228.5q0 -55 -2 -82h-177v96q0 194 -88.5 301t-244.5 107q-105 0 -169.5 -50.5t-64.5 -138.5q0 -79 55.5 -125.5t137.5 -46.5q15 0 65 4v-157
q-27 -2 -78 -2z" />
    <glyph glyph-name="dvmvR" unicode="&#x943;" horiz-adv-x="0" 
d="M-281 -651q-80 0 -150 20t-129 61t-93.5 112t-34.5 165q0 159 107 257.5t296 98.5q68 0 84 -2v-147h-67q-101 0 -157 -56t-56 -143q0 -99 65 -145.5t168 -46.5q83 0 156 22v-168q-82 -28 -189 -28z" />
    <glyph glyph-name="dvmvRR" unicode="&#x944;" horiz-adv-x="0" 
d="M-272 -936q-74 0 -139 16t-119 48.5t-85.5 88.5t-31.5 130q0 93 53.5 155t138.5 82v6q-190 44 -190 226q0 54 18.5 97t48.5 70.5t70.5 46t82 26t85.5 7.5h139v-120h-59q-79 0 -129.5 -32.5t-50.5 -105.5q0 -69 52 -102t134 -33h102v-159h-96q-84 0 -138 -32.5t-54 -109.5
q0 -72 56 -104.5t144 -32.5q111 0 201 31v-162q-98 -37 -233 -37z" />
    <glyph glyph-name="dvmEcandra" unicode="&#x945;" horiz-adv-x="0" 
d="M-319 1671q-111 0 -197 30.5t-137.5 83.5t-78 120.5t-26.5 146.5h187q0 -92 63.5 -155.5t188.5 -63.5t189 63.5t64 155.5h185q0 -79 -26.5 -146.5t-78.5 -120.5t-137.5 -83.5t-195.5 -30.5z" />
    <glyph glyph-name="dvmE" unicode="&#x947;" horiz-adv-x="0" 
d="M-406 1507q-61 96 -105 154.5t-82.5 97.5t-80.5 56.5t-81.5 23.5t-104.5 6h-92v176h88q59 0 99.5 -3t85.5 -12t78.5 -24t72.5 -42t72.5 -64t75 -90.5t83.5 -121t94 -157.5h-203z" />
    <glyph glyph-name="dvmAI" unicode="&#x948;" horiz-adv-x="0" 
d="M-387 1509q-127 94 -189.5 128.5t-120.5 45.5t-177 11h-95v137h90q88 0 130.5 -3t97.5 -18t102.5 -45.5t118.5 -87.5q-38 69 -72.5 120.5t-63.5 87.5t-60.5 59.5t-55.5 37t-59 20t-60.5 8t-68.5 1.5h-99v139h95q48 0 79 -1t68.5 -6.5t62 -14.5t57 -27t56.5 -41.5
t56.5 -60t61 -81t66.5 -107t76.5 -135t87.5 -167.5h-184z" />
    <glyph glyph-name="dvmOcandra" unicode="&#x949;" horiz-adv-x="618" 
d="M201 0v1335h-250v181h715v-181h-250v-1335h-215zM309 1671q-111 0 -196.5 30.5t-137.5 83.5t-78 120.5t-26 146.5h186q0 -92 63.5 -155.5t188.5 -63.5t189.5 64t64.5 155h185q0 -79 -26.5 -146.5t-78.5 -120.5t-138 -83.5t-196 -30.5z" />
    <glyph glyph-name="dvmO" unicode="&#x94b;" horiz-adv-x="618" 
d="M416 0h-215v1335h-250v181h256q-60 93 -103.5 150t-81 95t-79.5 55t-81.5 23t-103.5 6h-92v176h88q59 0 99.5 -3t85.5 -12t78.5 -23.5t72.5 -41t72.5 -62.5t74 -89t82.5 -119.5t93 -154.5h254v-181h-250v-1335z" />
    <glyph glyph-name="dvmAU" unicode="&#x94c;" 
d="M416 0h-215v1335h-250v181h264q-121 90 -184 124t-119.5 44t-175.5 10h-94v137h90q88 0 130.5 -3t97 -18t102 -45.5t118.5 -87.5q-38 69 -72.5 120.5t-63.5 87.5t-60.5 59.5t-55.5 37t-59 20t-60.5 8t-68.5 1.5h-98v139h94q48 0 78.5 -1t68.5 -6.5t62.5 -14.5t57 -26.5
t56 -40.5t56 -59.5t61 -80.5t65.5 -105.5t75.5 -133.5t86.5 -166h263v-181h-250v-1335z" />
    <glyph glyph-name="dvVirama" unicode="&#x94d;" horiz-adv-x="0" 
d="M-156 -543l-254 422h215l261 -422h-222z" />
    <glyph glyph-name="dvOm" unicode="&#x950;" horiz-adv-x="2172" 
d="M616 25q-206 0 -333 115t-127 304h202q0 -103 69 -169t177 -66q109 0 173.5 67t64.5 175q0 45 -14.5 86t-44.5 75.5t-81.5 55t-119.5 20.5h-84v182h84q114 0 176.5 63t62.5 152q0 102 -64 163t-159 61q-99 0 -163 -56t-64 -151h-201q0 177 119.5 283t310.5 106
q187 0 302.5 -103t115.5 -274q0 -123 -62 -209.5t-180 -116.5v-6q50 -12 70 -22h121q115 0 170 49.5t55 177.5q0 200 93 308t306 108q219 0 316.5 -127.5t97.5 -378.5v-270q0 -288 -130 -435t-400 -147q-73 0 -203 21v180q104 -17 166 -17q103 0 173.5 26.5t110.5 81
t57 125.5t17 171v291q0 145 -46.5 221t-158.5 76q-198 0 -198 -236q0 -213 -90 -303t-295 -90q32 -68 32 -162q0 -185 -117 -295t-307 -110zM1171 1513q-212 0 -325 105.5t-113 275.5h172q0 -92 70 -158.5t196 -66.5q125 0 195 66.5t70 158.5h174q0 -169 -114 -275
t-325 -106zM1171 1855q-41 0 -68.5 28t-27.5 69t27.5 69.5t68.5 28.5t69 -28.5t28 -69.5t-28 -69t-69 -28z" />
    <glyph glyph-name="dvKxA" unicode="&#x958;" horiz-adv-x="2019" 
d="M920 0v375q-47 -89 -137.5 -142t-217.5 -53q-194 0 -313 130.5t-119 346.5q0 213 121.5 342t318.5 129q124 0 212 -51t135 -137v395h-969v181h2115v-181h-940v-399q45 89 130 140.5t206 51.5q189 0 306.5 -131t117.5 -335q0 -218 -119 -343.5t-307 -125.5q-74 0 -131 14
v170q31 -8 76 -8q116 0 190 77t74 211q0 128 -76.5 207.5t-193.5 79.5q-70 0 -124 -26t-85.5 -70.5t-47.5 -97.5t-16 -111v-639h-206zM532 -242q-57 0 -96 38t-39 95q0 58 39 98t96 40q58 0 98 -39.5t40 -98.5q0 -57 -39.5 -95t-98.5 -38zM635 360q70 0 126.5 26.5t90 69.5
t51 94t17.5 103q0 55 -17.5 105.5t-51 92.5t-89.5 67.5t-127 25.5q-122 0 -203.5 -79.5t-81.5 -209.5q0 -135 80 -215t205 -80z" />
    <glyph glyph-name="dvKHxA" unicode="&#x959;" horiz-adv-x="1927" 
d="M1225 264q-37 0 -74 6q-64 -125 -182 -201.5t-279 -76.5q-244 0 -387 139t-143 387v301h67q137 0 212 67t75 228v221h-563v181h2025v-181h-250v-1335h-213v410q-92 -146 -288 -146zM651 -424q-57 0 -96 38t-39 95q0 58 39 97.5t96 39.5q59 0 98 -39t39 -98q0 -57 -39 -95
t-98 -38zM1268 430q61 0 109.5 22.5t77 59.5t43.5 81t15 91q0 102 -62 178t-183 76q-107 0 -179.5 -67.5t-72.5 -182.5q0 -120 71.5 -189t180.5 -69zM696 178q103 0 174.5 45t112.5 117q-76 57 -118 145.5t-42 202.5q0 184 114 300t288 116q196 0 288 -146v377h-784v-248
q0 -108 -27 -189.5t-76.5 -130.5t-112.5 -74t-140 -29v-170q0 -142 86 -229t237 -87z" />
    <glyph glyph-name="dvGxA" unicode="&#x95a;" horiz-adv-x="1566" 
d="M1153 0v1335h-334v-526q0 -81 -20.5 -149t-63 -121t-113 -83t-163.5 -30q-178 0 -273.5 100t-95.5 271q0 43 2 63h209v-63q0 -80 36 -133.5t116 -53.5q151 0 151 191v534h-653v181h1665v-181h-250v-1335h-213zM465 -2q-57 0 -96 38t-39 95q0 58 39 97.5t96 39.5
q59 0 98 -39t39 -98q0 -57 -39 -95t-98 -38z" />
    <glyph glyph-name="dvJxA" unicode="&#x95b;" horiz-adv-x="1732" 
d="M-49 1335v181h1831v-181h-250v-1335h-215v831h-344v-155q0 -190 -113 -308t-305 -118q-197 0 -306.5 117t-109.5 309v340h217v-336q0 -110 53.5 -176t147.5 -66q96 0 151.5 66t55.5 176v336h553v319h-1366zM561 -170q-57 0 -96 38t-39 95q0 58 39 97.5t96 39.5
q59 0 98 -39t39 -98q0 -57 -39 -95t-98 -38z" />
    <glyph glyph-name="dvDDxA" unicode="&#x95c;" horiz-adv-x="1171" 
d="M-49 1335v181h1268v-181h-269v-372h-356q-41 0 -76 -6.5t-68 -22t-52 -46t-19 -73.5q0 -78 53 -112.5t137 -34.5h93q65 0 123.5 -11t113.5 -37t94.5 -65t63.5 -100t24 -138q0 -160 -114 -255t-326 -95q-228 0 -366 107t-142 288h213q2 -105 78.5 -168t210.5 -63
q118 0 181 51.5t63 136.5q0 53 -20.5 92t-57 61t-81 32t-97.5 10h-80q-54 0 -104 8t-101.5 29.5t-89 55t-61 88.5t-23.5 126q0 78 30.5 136.5t84 92t118 50t138.5 16.5h208v219h-792zM633 -453q-57 0 -96 38.5t-39 95.5q0 58 39 97.5t96 39.5q59 0 98 -39t39 -98
q0 -57 -39.5 -95.5t-97.5 -38.5z" />
    <glyph glyph-name="dvDDHxA" unicode="&#x95d;" horiz-adv-x="1320" 
d="M-49 1335v181h1419v-181h-364v-354h-207q-204 0 -331.5 -106.5t-127.5 -307.5q0 -178 115 -290.5t311 -112.5q139 0 229 68t90 180q0 80 -50 131t-128 51q-68 0 -115 -43.5t-47 -112.5q0 -21 7 -39h-158q-6 35 -6 68q0 132 91.5 207.5t235.5 75.5q162 0 258.5 -93.5
t96.5 -244.5q0 -186 -136 -296t-372 -110q-179 0 -321 67.5t-225 197.5t-83 302q0 136 45.5 243.5t127 176t190 104.5t237.5 36h70v202h-852zM715 -412q-57 0 -96 38t-39 95q0 58 39 98t96 40q58 0 97.5 -39.5t39.5 -98.5q0 -57 -39 -95t-98 -38z" />
    <glyph glyph-name="dvPHxA" unicode="&#x95e;" horiz-adv-x="2017" 
d="M641 563q122 0 191 81.5t69 203.5v487h-522v-450q0 -151 65.5 -236.5t196.5 -85.5zM-49 1335v181h2115v-181h-950v-399q47 88 135.5 140t212.5 52q187 0 304.5 -129t117.5 -331q0 -221 -118.5 -348t-307.5 -127q-75 0 -137 16v168q42 -10 84 -10q116 0 189 78.5t73 211.5
q0 128 -76 207.5t-194 79.5q-95 0 -161 -48.5t-94 -120.5t-28 -159v-616h-215v532q-101 -151 -311 -151q-207 0 -316.5 136.5t-109.5 367.5v450h-213zM512 -31q-57 0 -96 38t-39 95q0 58 39 98t96 40q58 0 97.5 -39.5t39.5 -98.5q0 -57 -39 -95t-98 -38z" />
    <glyph glyph-name="dvvRR" unicode="&#x960;" horiz-adv-x="2039" 
d="M1008 0v500l-508 -500h-271v12l779 707q-24 105 -106.5 171t-201.5 66q-156 0 -250 -97t-94 -259h-215q0 242 136.5 390.5t361.5 148.5q246 0 369 -183v379h-1057v181h2210v-181h-955v-430h346q160 0 160 142v106h186v-727h-79q-78 0 -128.5 -31.5t-50.5 -105.5
q0 -69 52.5 -101t134.5 -32h102v-162h-98q-84 0 -138.5 -32.5t-54.5 -108.5q0 -72 57.5 -105t143.5 -33q101 0 203 33v-162q-93 -39 -234 -39q-59 0 -112 10t-101.5 31.5t-83.5 54t-56 81t-21 108.5q0 92 53.5 155t136.5 81v6q-86 20 -138 76t-52 149q0 62 24.5 110.5
t65.5 77t88 43.5t100 17v227q-84 -41 -190 -41h-316v-733h-198z" />
    <glyph glyph-name="dvvLL" unicode="&#x961;" horiz-adv-x="1865" 
d="M-49 1335v181h1956v-181h-500v-239q140 -36 223.5 -157.5t83.5 -307.5q0 -117 -33 -205h-71q-78 0 -128 -31.5t-50 -105.5q0 -69 52 -101t134 -32h102v-162h-98q-192 0 -192 -141q0 -72 57 -105t143 -33q107 0 203 33v-162q-93 -39 -234 -39q-59 0 -112 10t-101.5 32
t-83.5 54.5t-56 81.5t-21 109q0 91 53.5 153.5t136.5 80.5v6q-86 20 -138 76t-52 149q0 117 78.5 177t189.5 69q8 39 8 88q0 125 -61 205t-174 80q-123 0 -185.5 -91.5t-62.5 -244.5v-43h-180v43q0 150 -60 243t-178 93q-119 0 -184.5 -80t-65.5 -209q0 -149 77.5 -233.5
t217.5 -84.5q17 0 57 4v-188q-27 -2 -69 -2q-240 0 -370 138.5t-130 367.5q0 224 122.5 350.5t315.5 126.5q75 0 137 -24t103.5 -65t69 -88.5t43.5 -103.5h6q29 99 94.5 172t173.5 99v237h-1247z" />
    <glyph glyph-name="dvmvL" unicode="&#x962;" horiz-adv-x="0" 
d="M211 -956q-137 0 -223 67t-86 193q0 92 55.5 157t146.5 84q5 23 5 58q0 92 -42 148t-124 56q-87 0 -130.5 -65.5t-43.5 -173.5v-31h-142v31q0 108 -43 173.5t-127 65.5q-86 0 -132 -56.5t-46 -149.5q0 -103 55.5 -163.5t153.5 -60.5q28 0 43 5v-148q-18 -2 -51 -2
q-177 0 -274 102t-97 269t91 260.5t233 93.5q106 0 169.5 -58t90.5 -145h4q27 86 94 144.5t178 58.5q136 0 224 -95t88 -259q0 -73 -23 -150h-12q-91 0 -137 -38.5t-46 -100.5q0 -66 48 -100.5t118 -34.5q53 0 88 12v-137q-52 -10 -106 -10z" />
    <glyph glyph-name="dvmvLL" unicode="&#x963;" horiz-adv-x="0" 
d="M362 -1167q-70 -25 -172 -25q-55 0 -103 11.5t-87.5 35t-62.5 65t-23 97.5q0 70 39 115.5t100 58.5v4q-63 14 -101 57.5t-38 112.5q0 86 55.5 131.5t136.5 52.5q3 27 3 54q0 92 -42 148t-124 56q-87 0 -130.5 -65.5t-43.5 -173.5v-31h-142v31q0 108 -43 173.5t-127 65.5
q-86 0 -132 -56.5t-46 -149.5q0 -103 55.5 -163.5t153.5 -60.5q28 0 43 5v-148q-18 -2 -51 -2q-177 0 -274 102t-97 269t91 260.5t233 93.5q106 0 169.5 -58t90.5 -145h4q27 86 94 144.5t178 58.5q136 0 224 -95t88 -259q0 -73 -23 -150h-57q-127 0 -127 -96t135 -96h72
v-127h-68q-141 0 -141 -101q0 -96 143 -96q75 0 147 23v-127z" />
    <glyph glyph-name="danda" unicode="&#x964;" horiz-adv-x="614" 
d="M528 1518v-1518h-213v1518h213z" />
    <glyph glyph-name="doubledanda" unicode="&#x965;" horiz-adv-x="1083" 
d="M528 1518v-1518h-213v1518h213zM995 1518v-1518h-213v1518h213z" />
    <glyph glyph-name="dvZero" unicode="&#x966;" horiz-adv-x="1312" 
d="M123 766q0 134 15 242.5t52.5 206t96.5 163.5t152.5 104t215.5 38t215.5 -38t153 -104t97 -163.5t52.5 -206t15 -242.5q0 -136 -15 -246.5t-52.5 -208.5t-97 -164t-153 -104.5t-215.5 -38.5t-215.5 38.5t-153 104.5t-96.5 164t-52 208t-15 247zM958 766q0 66 -2.5 118
t-10 110.5t-21 102t-36.5 85t-54 67.5t-76.5 42t-102.5 16t-102.5 -16t-76.5 -42t-54 -67.5t-36.5 -85t-21 -102t-10 -110.5t-2.5 -118q0 -82 3.5 -143.5t14 -128.5t32 -113.5t54 -85.5t83 -58.5t116.5 -19.5t116.5 19.5t83 58.5t54 85.5t32 113.5t14 128.5t3.5 143.5z" />
    <glyph glyph-name="dvOne" unicode="&#x967;" horiz-adv-x="716" 
d="M283 0v1280h-191v213h426v-1493h-235z" />
    <glyph glyph-name="dvTwo" unicode="&#x968;" horiz-adv-x="1181" 
d="M104 20v170q48 42 131 113t132 113.5t119.5 107.5t112.5 109.5t91 104.5t75 109.5t44 105.5t18 110q0 262 -241 262q-120 0 -186.5 -76.5t-71.5 -206.5h-226q3 118 41.5 211.5t104 151.5t151 88.5t185.5 30.5q224 0 349.5 -123t125.5 -328q0 -66 -17.5 -133t-42.5 -122
t-70 -118.5t-82.5 -108t-98.5 -105t-99.5 -95t-104 -92.5t-93.5 -84h649v-195h-996z" />
    <glyph glyph-name="dvThree" unicode="&#x969;" horiz-adv-x="1216" 
d="M119 1124q12 190 146.5 297t342.5 107q216 0 337.5 -110t121.5 -279q0 -126 -67 -216t-162 -122v-8q120 -36 188 -133.5t68 -249.5q0 -185 -126.5 -301.5t-353.5 -116.5q-221 0 -363.5 114t-152.5 326h226q8 -108 84 -177t204 -69q126 0 193 68.5t67 177.5
q0 143 -90.5 203.5t-279.5 60.5h-53v193h55q165 2 252.5 54.5t87.5 168.5q0 99 -63 157t-181 58q-115 0 -178.5 -58.5t-75.5 -144.5h-227z" />
    <glyph glyph-name="dvFour" unicode="&#x96a;" horiz-adv-x="1325" 
d="M836 0v311h-742v176l688 988h283v-961h190v-203h-190v-311h-229zM362 514h484v723z" />
    <glyph glyph-name="dvFive" unicode="&#x96b;" horiz-adv-x="1308" 
d="M184 1497h901v-205h-686v-407q43 58 128 96.5t182 38.5q106 0 190.5 -30.5t137.5 -79.5t88 -115.5t49 -134t14 -138.5q0 -113 -32.5 -207t-95.5 -165t-162 -110.5t-226 -39.5q-223 0 -358 110.5t-162 292.5h227q24 -97 101 -152.5t194 -55.5q145 0 218 88t73 233
q0 148 -73 226.5t-218 78.5q-100 0 -169 -50t-99 -136h-222v862z" />
    <glyph glyph-name="dvSix" unicode="&#x96c;" horiz-adv-x="1314" 
d="M1141 1147h-215q-22 94 -81.5 141t-166.5 47q-163 0 -242.5 -124t-83.5 -410q54 90 155.5 139t221.5 49q205 0 332 -131t127 -360q0 -220 -129 -359t-361 -139q-128 0 -223.5 36.5t-156.5 100.5t-98.5 164t-52.5 215t-15 264q0 750 528 750q105 0 190.5 -31.5t140.5 -86
t87.5 -121.5t42.5 -144zM678 793q-125 0 -212 -75t-87 -216t80 -224t227 -83q128 0 203.5 79.5t75.5 212.5q0 140 -72.5 223t-214.5 83z" />
    <glyph glyph-name="dvSeven" unicode="&#x96d;" horiz-adv-x="1146" 
d="M82 1487h987v-174l-569 -1313h-236l576 1288h-758v199z" />
    <glyph glyph-name="dvEight" unicode="&#x96e;" horiz-adv-x="1306" 
d="M375 780q-213 106 -213 336q0 83 31 155t90 128t154.5 88.5t215.5 32.5t215.5 -32.5t155 -89t90.5 -128.5t31 -154q0 -115 -58.5 -202t-154.5 -134q116 -44 184 -140.5t68 -227.5q0 -202 -148.5 -325.5t-382.5 -123.5q-233 0 -380.5 123.5t-147.5 325.5q0 132 67.5 229
t182.5 139zM653 854q117 0 193 66t76 167q0 114 -72 176t-197 62q-123 0 -194.5 -62t-71.5 -178q0 -101 74.5 -166t191.5 -65zM653 678q-135 0 -220 -66t-85 -192q0 -116 82.5 -189t222.5 -73q138 0 219.5 73.5t81.5 188.5q0 123 -82.5 190.5t-218.5 67.5z" />
    <glyph glyph-name="dvNine" unicode="&#x96f;" horiz-adv-x="1300" 
d="M199 406h215q42 -209 270 -209q96 0 156 46t92.5 158.5t32.5 300.5q-50 -69 -139 -107t-193 -38q-99 0 -185 31t-151 89t-102 150t-37 207q0 226 131.5 360t363.5 134q143 0 242.5 -48t159 -146.5t86 -234.5t26.5 -325q0 -157 -14 -274.5t-48.5 -214.5t-91 -157.5
t-142 -93t-201.5 -32.5q-112 0 -200.5 33t-144.5 90t-87.5 128t-38.5 153zM674 754q123 0 193.5 76.5t70.5 203.5q0 141 -75 220t-204 79t-203.5 -81t-74.5 -212q0 -125 73 -205.5t220 -80.5z" />
    <glyph glyph-name="dvAbbreviationsign" unicode="&#x970;" horiz-adv-x="999" 
d="M504 1040q151 0 245.5 -93t94.5 -242q0 -146 -94.5 -239t-245.5 -93q-152 0 -249 94t-97 240q0 147 96.5 240t249.5 93zM504 909q-93 0 -153 -56.5t-60 -145.5t60 -146t153 -57q89 0 146 56t57 145t-57 146.5t-146 57.5z" />
    <glyph glyph-name="dvAcandra" unicode="&#x972;" horiz-adv-x="1705" 
d="M569 934q112 0 175 60.5t63 144.5q0 97 -62.5 155t-156.5 58q-99 0 -165.5 -57t-66.5 -150h-198q0 177 119.5 283t310.5 106q184 0 297.5 -100.5t113.5 -266.5q0 -116 -61.5 -198.5t-177.5 -114.5v-4q53 -10 106 -41h420v707h463v-181h-250v-1335h-213v631l-282 2
q20 -59 20 -125q0 -179 -115 -287t-303 -108q-206 0 -334.5 116t-128.5 303h201q0 -102 69.5 -168.5t178.5 -66.5q108 0 171.5 63.5t63.5 167.5q0 60 -22 105h-4v8q-65 119 -232 119h-84v174h84zM1409 1710q-111 0 -196.5 30.5t-137.5 83.5t-78 120.5t-26 146.5h186
q0 -92 63.5 -155.5t188.5 -63.5t189.5 64t64.5 155h184q0 -79 -26.5 -146.5t-78.5 -120.5t-137.5 -83.5t-195.5 -30.5z" />
    <glyph glyph-name="Wgrave" unicode="&#x1e80;" horiz-adv-x="2045" 
d="M442 -2l-403 1425h248l295 -1159l319 1159h262l297 -1153l297 1153h250l-422 -1423h-264l-299 1077l-317 -1077zM715 1729v198l452 -250v-172z" />
    <glyph glyph-name="wgrave" unicode="&#x1e81;" horiz-adv-x="1689" 
d="M373 0l-353 1128h238l236 -907l239 907h244l229 -903l234 903h229l-350 -1128h-246l-227 834l-228 -834h-245zM518 1432v198l453 -250v-172z" />
    <glyph glyph-name="Wacute" unicode="&#x1e82;" horiz-adv-x="2045" 
d="M442 -2l-403 1425h248l295 -1159l319 1159h262l297 -1153l297 1153h250l-422 -1423h-264l-299 1077l-317 -1077zM901 1688l453 249v-198l-453 -223v172z" />
    <glyph glyph-name="wacute" unicode="&#x1e83;" horiz-adv-x="1689" 
d="M373 0l-353 1128h238l236 -907l239 907h244l229 -903l234 903h229l-350 -1128h-246l-227 834l-228 -834h-245zM729 1380l453 250v-198l-453 -224v172z" />
    <glyph glyph-name="Wdieresis" unicode="&#x1e84;" horiz-adv-x="2045" 
d="M442 -2l-403 1425h248l295 -1159l319 1159h262l297 -1153l297 1153h250l-422 -1423h-264l-299 1077l-317 -1077zM838 1571q-52 0 -87.5 35.5t-35.5 87.5q0 51 35.5 87t87.5 36q51 0 87 -36t36 -87q0 -52 -36 -87.5t-87 -35.5zM1190 1571q-52 0 -87.5 35.5t-35.5 87.5
q0 51 35.5 87t87.5 36q51 0 87 -36t36 -87q0 -52 -36 -87.5t-87 -35.5z" />
    <glyph glyph-name="wdieresis" unicode="&#x1e85;" horiz-adv-x="1689" 
d="M373 0l-353 1128h238l236 -907l239 907h244l229 -903l234 903h229l-350 -1128h-246l-227 834l-228 -834h-245zM670 1270q-52 0 -87.5 35t-35.5 88q0 51 35.5 87t87.5 36q51 0 87 -36t36 -87q0 -52 -36 -87.5t-87 -35.5zM1022 1270q-52 0 -87.5 35t-35.5 88q0 51 35.5 87
t87.5 36q51 0 87 -36t36 -87q0 -52 -36 -87.5t-87 -35.5z" />
    <glyph glyph-name="uni1EBC" unicode="&#x1ebc;" horiz-adv-x="1073" 
d="M940 1425v-190h-553v-418h492v-190h-492v-437h553v-190h-786v1425h786zM203 1542q17 118 78 179t153 61q47 0 89 -22.5t79 -45t70 -22.5q76 0 88 86h131q-17 -118 -78.5 -179t-153.5 -61q-37 0 -72 14.5t-57.5 31.5t-51.5 31.5t-56 14.5q-35 0 -58.5 -22.5t-29.5 -65.5
h-131z" />
    <glyph glyph-name="uni1EBD" unicode="&#x1ebd;" horiz-adv-x="1263" 
d="M629 950q-121 0 -206.5 -76.5t-103.5 -207.5h625q-3 128 -92.5 206t-222.5 78zM1157 336q-50 -156 -185 -255t-333 -99q-246 0 -404.5 160.5t-158.5 422.5q0 264 155.5 423t407.5 159q243 0 396 -153.5t153 -401.5q0 -63 -8 -115h-863q12 -137 101.5 -218t220.5 -81
q189 0 266 158h252zM299 1245q17 118 78 179t153 61q47 0 89 -22.5t79 -45t70 -22.5q76 0 88 86h131q-17 -118 -78 -179t-153 -61q-47 0 -89 23t-79 46t-70 23q-35 0 -58.5 -22.5t-29.5 -65.5h-131z" />
    <glyph glyph-name="Ygrave" unicode="&#x1ef2;" horiz-adv-x="1239" 
d="M504 516l-473 907h260l330 -698l329 698h258l-471 -907v-516h-233v516zM379 1729v198l452 -250v-172z" />
    <glyph glyph-name="ygrave" unicode="&#x1ef3;" horiz-adv-x="1191" 
d="M598 268l330 860h241l-692 -1658h-241l229 548l-445 1110h261zM354 1432v198l453 -250v-172z" />
    <glyph glyph-name="uni1EF8" unicode="&#x1ef8;" horiz-adv-x="1239" 
d="M504 516l-473 907h260l330 -698l329 698h258l-471 -907v-516h-233v516zM287 1542q17 118 78 179t153 61q47 0 89 -22.5t79 -45t70 -22.5q76 0 88 86h131q-17 -118 -78.5 -179t-153.5 -61q-37 0 -72 14.5t-57.5 31.5t-51.5 31.5t-56 14.5q-35 0 -58.5 -22.5t-29.5 -65.5
h-131z" />
    <glyph glyph-name="uni1EF9" unicode="&#x1ef9;" horiz-adv-x="1191" 
d="M598 268l330 860h241l-692 -1658h-241l229 548l-445 1110h261zM262 1245q17 118 78.5 179t153.5 61q37 0 72 -14t57.5 -31t51.5 -31t56 -14q76 0 88 86h131q-17 -118 -78 -179t-153 -61q-47 0 -89 23t-79 46t-70 23q-35 0 -58.5 -22.5t-29.5 -65.5h-131z" />
    <glyph glyph-name="zerowidthnonjoiner" unicode="&#x200c;" horiz-adv-x="0" 
d="M49 -471h-96v2132h96v-2132z" />
    <glyph glyph-name="zerowidthjoiner" unicode="&#x200d;" horiz-adv-x="0" 
d="M262 1214l-67 -67l-148 153v-1771h-96v1771l-141 -149l-68 68l190 190l-194 195l67 67l195 -194l197 194l65 -65l-196 -197z" />
    <glyph glyph-name="endash" unicode="&#x2013;" horiz-adv-x="1449" 
d="M178 643v197h1096v-197h-1096z" />
    <glyph glyph-name="emdash" unicode="&#x2014;" horiz-adv-x="1892" 
d="M178 643v197h1536v-197h-1536z" />
    <glyph glyph-name="quoteleft" unicode="&#x2018;" horiz-adv-x="495" 
d="M266 1423h164l-125 -487h-254z" />
    <glyph glyph-name="quoteright" unicode="&#x2019;" horiz-adv-x="495" 
d="M229 936h-163l124 487h254z" />
    <glyph glyph-name="quotesinglbase" unicode="&#x201a;" horiz-adv-x="413" 
d="M10 -285l146 566h254l-248 -566h-152z" />
    <glyph glyph-name="quotedblleft" unicode="&#x201c;" horiz-adv-x="872" 
d="M266 1423h164l-125 -487h-254zM635 1423h164l-125 -487h-254z" />
    <glyph glyph-name="quotedblright" unicode="&#x201d;" horiz-adv-x="886" 
d="M621 936h-164l125 487h254zM252 936h-164l125 487h254z" />
    <glyph glyph-name="quotedblbase" unicode="&#x201e;" horiz-adv-x="921" 
d="M10 -285l146 566h254l-248 -566h-152zM471 -285l145 566h254l-247 -566h-152z" />
    <glyph glyph-name="dagger" unicode="&#x2020;" horiz-adv-x="1196" 
d="M690 1108l406 20v-182l-406 21l25 -1504h-234l25 1504l-406 -21v182l406 -20l-25 496h234z" />
    <glyph glyph-name="daggerdbl" unicode="&#x2021;" horiz-adv-x="1198" 
d="M1096 1128v-182l-406 21v-865l406 21v-182l-406 20l25 -498h-234l25 498l-404 -20v182l404 -21v865l-404 -21v182l404 -20l-25 496h234l-25 -496z" />
    <glyph glyph-name="bullet" unicode="&#x2022;" horiz-adv-x="946" 
d="M471 416q-111 0 -188.5 77t-77.5 189q0 113 77.5 190.5t188.5 77.5q114 0 192 -77t78 -191q0 -112 -78 -189t-192 -77z" />
    <glyph glyph-name="ellipsis" unicode="&#x2026;" horiz-adv-x="1306" 
d="M807 135q0 -63 -43 -106t-105 -43q-63 0 -106 43t-43 106t43 106.5t106 43.5q62 0 105 -43.5t43 -106.5zM1221 135q0 -63 -43 -106t-105 -43q-63 0 -106 43t-43 106t43 106.5t106 43.5q62 0 105 -43.5t43 -106.5zM395 135q0 -63 -42.5 -106t-104.5 -43q-63 0 -106.5 43
t-43.5 106t43.5 106.5t106.5 43.5q62 0 104.5 -43.5t42.5 -106.5z" />
    <glyph glyph-name="perthousand" unicode="&#x2030;" horiz-adv-x="2174" 
d="M84 1133q0 145 87 229t224 84t224.5 -84t87.5 -229q0 -146 -87.5 -231t-224.5 -85t-224 85t-87 231zM395 1305q-129 0 -129 -172q0 -175 129 -175q61 0 95 43.5t34 131.5q0 172 -129 172zM215 0l817 1425h230l-818 -1425h-229zM774 295q0 146 87 229.5t224 83.5
q136 0 223 -83.5t87 -229.5t-87 -230.5t-223 -84.5q-137 0 -224 84.5t-87 230.5zM1083 467q-129 0 -129 -172t129 -172t129 172t-129 172zM1468 295q0 145 88 229t224 84q137 0 224 -83.5t87 -229.5t-87 -230.5t-224 -84.5q-136 0 -224 84.5t-88 230.5zM1780 467
q-129 0 -129 -172t129 -172t129 172t-129 172z" />
    <glyph glyph-name="guilsinglleft" unicode="&#x2039;" horiz-adv-x="608" 
d="M309 604l197 -358h-225l-189 358l189 359h225z" />
    <glyph glyph-name="guilsinglright" unicode="&#x203a;" horiz-adv-x="608" 
d="M326 246h-224l195 358l-195 359h224l190 -359z" />
    <glyph glyph-name="fraction" unicode="&#x2044;" horiz-adv-x="1202" 
d="M104 0l818 1425h231l-817 -1425h-232z" />
    <glyph glyph-name="rupee" unicode="&#x20a8;" horiz-adv-x="2349" 
d="M909 999q0 114 -65.5 178t-198.5 64h-258v-481h258q132 0 198 64t66 175zM154 1423h491q123 0 220.5 -33.5t158.5 -92t93 -134.5t32 -164q0 -67 -19.5 -129.5t-60 -119.5t-111 -98.5t-163.5 -59.5l376 -592h-284l-357 578h-143v-578h-233v1423zM1278 805q0 144 120.5 243
t325.5 99q188 0 303.5 -97.5t124.5 -265.5h-239q-6 85 -58.5 132t-146.5 47t-147.5 -42.5t-53.5 -107.5q0 -53 36.5 -87.5t94.5 -52t128.5 -32t141 -35t128.5 -52.5t94.5 -93t36.5 -148q0 -147 -124 -239t-317 -92q-197 0 -317.5 94t-132.5 268h242q6 -83 61 -130.5
t147 -47.5q99 0 155 41.5t56 109.5q0 53 -36.5 87.5t-94.5 53t-128 33t-140.5 34.5t-128.5 50t-94.5 88.5t-36.5 141.5z" />
    <glyph glyph-name="Euro" unicode="&#x20ac;" horiz-adv-x="1642" 
d="M201 715q0 32 4 90h-152v160h189q74 217 260.5 347t425.5 130q226 0 402.5 -111.5t256.5 -316.5h-280q-57 106 -153.5 160.5t-225.5 54.5q-149 0 -263 -69.5t-173 -194.5h436v-160h-482q-6 -43 -6 -90t6 -90h482v-160h-436q60 -127 173.5 -196.5t262.5 -69.5
q129 0 225.5 54.5t153.5 160.5h280q-80 -205 -256.5 -315.5t-402.5 -110.5q-240 0 -426.5 129.5t-259.5 347.5h-189v160h152q-4 58 -4 90z" />
    <glyph glyph-name="indianrupee" unicode="&#x20b9;" horiz-adv-x="1273" 
d="M94 1255v170h1114v-170h-237v-153v-29h237v-168h-250q-34 -203 -161 -286.5t-398 -83.5v-129q0 -244 211 -244q209 0 209 235h215q-3 -207 -112.5 -312t-315.5 -105q-207 0 -316.5 114t-109.5 322v280q85 0 141.5 1t115 4.5t94 9.5t71.5 17t56.5 26t38.5 37t28 49.5
t16 64.5h-647v168h658v29v153h-658z" />
    <glyph glyph-name="uni20BA" unicode="&#x20ba;" horiz-adv-x="1740" 
d="M575 1436v-387l336 77v-163l-336 -76v-174l326 73v-163l-326 -74v-346q71 -15 160 -15q143 0 243.5 46.5t160 138t86 214.5t26.5 290h240q0 -464 -179.5 -686t-576.5 -222q-175 0 -399 51v474l-305 -70v166l305 69v175l-313 -72v160l313 71v443h239z" />
    <glyph glyph-name="uni20BD" unicode="&#x20bd;" horiz-adv-x="1300" 
d="M469 1241v-481h258q132 0 198 64t66 175q0 114 -65.5 178t-198.5 64h-258zM53 578v182h183v663h491q123 0 220.5 -33.5t158.5 -92t93 -134.5t32 -164q0 -80 -27.5 -152t-84.5 -134t-158 -98.5t-234 -36.5h-258v-168h408v-187h-408v-223h-233v223h-183v187h183v168h-183z
" />
    <glyph glyph-name="uni2113" unicode="&#x2113;" horiz-adv-x="540" 
d="M154 0v1516h233v-1516h-233z" />
    <glyph glyph-name="trademark" unicode="&#x2122;" horiz-adv-x="1660" 
d="M49 1303v139h502v-139h-162l2 -582h-184l4 582h-162zM670 721v721h237l197 -506l207 506h225v-721h-168l-4 487l-203 -487h-125l-200 498v-498h-166z" />
    <glyph glyph-name="uni2126" unicode="&#x2126;" horiz-adv-x="1607" 
d="M78 715q0 209 97 376t262.5 259t365.5 92q202 0 367.5 -92t262.5 -259t97 -376q0 -167 -66 -306.5t-194 -226.5h237v-182h-559v188q155 54 249.5 188.5t94.5 323.5q0 242 -136.5 385.5t-352.5 143.5q-217 0 -352.5 -144t-135.5 -385q0 -189 94.5 -323.5t249.5 -188.5
v-188h-561v182h238q-126 87 -192 227t-66 306z" />
    <glyph glyph-name="estimated" unicode="&#x212e;" horiz-adv-x="1550" 
d="M1403 279q-274 -293 -610 -293q-151 0 -279.5 46.5t-223.5 133.5t-148.5 219t-53.5 295q0 215 78.5 386t236 273.5t371.5 102.5q160 0 293 -56t218 -149.5t131 -213t46 -249.5v-127h-1065v-348q155 -166 396 -166q147 0 268.5 62t247.5 188zM397 793h742v356
q-131 147 -365 147q-246 0 -377 -168v-335z" />
    <glyph glyph-name="partialdiff" unicode="&#x2202;" horiz-adv-x="1198" 
d="M860 657q0 142 -57 217.5t-156 75.5q-142 0 -237 -137.5t-95 -339.5q0 -147 56 -221t151 -74q93 0 171 66t122.5 176t44.5 237zM78 473q0 180 75 335t204.5 247t281.5 92q146 0 238 -109q-13 155 -85.5 247.5t-203.5 92.5q-70 0 -162 -24v131q94 31 197 31
q235 0 366 -184t131 -492q0 -194 -50 -357t-135.5 -271.5t-198.5 -169t-240 -60.5q-88 0 -163 30t-132.5 89t-90 154t-32.5 218z" />
    <glyph glyph-name="uni2206" unicode="&#x2206;" horiz-adv-x="1425" 
d="M41 180l575 1245h193l575 -1245v-180h-1343v180zM1145 180l-432 979l-432 -979h864z" />
    <glyph glyph-name="product" unicode="&#x220f;" horiz-adv-x="1517" 
d="M63 1243v182h1391v-182h-158v-1243h-231v1243h-612v-1243h-234v1243h-156z" />
    <glyph glyph-name="summation" unicode="&#x2211;" horiz-adv-x="983" 
d="M82 1155v270h819v-180h-620l536 -493v-181l-538 -505h622v-181h-819v273l520 499z" />
    <glyph glyph-name="minus" unicode="&#x2212;" horiz-adv-x="1198" 
d="M178 643v197h842v-197h-842z" />
    <glyph glyph-name="uni2215" unicode="&#x2215;" horiz-adv-x="1052" 
d="M125 -358l555 2291h231l-557 -2291h-229z" />
    <glyph glyph-name="uni2219" unicode="&#x2219;" horiz-adv-x="499" 
d="M403 686q0 -63 -42.5 -106t-104.5 -43q-63 0 -106.5 43t-43.5 106t43.5 106.5t106.5 43.5q62 0 104.5 -43.5t42.5 -106.5z" />
    <glyph glyph-name="radical" unicode="&#x221a;" horiz-adv-x="1697" 
d="M643 -88h-119l-270 477l-141 -84l-70 117l342 203l244 -432l878 1607h168z" />
    <glyph glyph-name="infinity" unicode="&#x221e;" horiz-adv-x="1437" 
d="M397 561q61 0 120 37.5t99 99.5q-66 82 -114.5 123t-104.5 41q-66 0 -106.5 -39.5t-40.5 -111.5t40.5 -111t106.5 -39zM1040 561q66 0 107 40t41 112q0 71 -40.5 110t-107.5 39q-64 0 -124.5 -39.5t-100.5 -105.5q63 -78 113.5 -117t111.5 -39zM55 711q0 146 95 232.5
t235 86.5q104 0 182.5 -51.5t153.5 -142.5q55 89 143.5 142t196.5 52q138 -2 229.5 -86.5t91.5 -230.5t-94.5 -233t-234.5 -87q-101 0 -182 50.5t-158 138.5q-55 -86 -142.5 -138t-193.5 -51q-140 2 -231 87t-91 231z" />
    <glyph glyph-name="integral" unicode="&#x222b;" horiz-adv-x="552" 
d="M72 -131l186 1710q18 169 104.5 242t243.5 73h45l-20 -194h-33q-50 0 -74.5 -27.5t-31.5 -93.5l-185 -1710q-18 -167 -105.5 -240t-244.5 -73h-43l18 192h35q48 0 73.5 28.5t31.5 92.5z" />
    <glyph glyph-name="approxequal" unicode="&#x2248;" horiz-adv-x="1132" 
d="M74 369q30 173 113.5 255.5t211.5 82.5q54 0 106 -21t85.5 -46t77 -46t82.5 -21q52 0 91 33.5t48 95.5h170q-30 -173 -115 -255t-213 -82q-54 0 -105.5 21t-84 45.5t-75.5 45.5t-83 21q-53 0 -92.5 -34t-48.5 -95h-168zM74 823q30 173 113.5 255.5t211.5 82.5
q54 0 106 -21t85.5 -45.5t77 -45.5t82.5 -21q52 0 91 33.5t48 95.5h170q-30 -173 -115 -255.5t-213 -82.5q-54 0 -105.5 21t-84 45.5t-75.5 45.5t-83 21q-53 0 -92.5 -34t-48.5 -95h-168z" />
    <glyph glyph-name="notequal" unicode="&#x2260;" horiz-adv-x="1540" 
d="M248 215l170 195h-170v196h342l235 268h-577v197h749l168 193h172l-168 -193h168v-197h-340l-235 -268h575v-196h-747l-170 -195h-172z" />
    <glyph glyph-name="lessequal" unicode="&#x2264;" horiz-adv-x="1124" 
d="M186 137v176h756v-176h-756zM952 426h-307l-471 389l471 389h307l-469 -387z" />
    <glyph glyph-name="greaterequal" unicode="&#x2265;" horiz-adv-x="1124" 
d="M479 426h-305l467 391l-467 387h305l473 -389zM182 313h756v-176h-756v176z" />
    <glyph glyph-name="lozenge" unicode="&#x25ca;" horiz-adv-x="1140" 
d="M63 719l508 506l506 -506l-506 -508zM827 719l-256 256l-256 -256l256 -258z" />
    <glyph glyph-name="dottedcircle" unicode="&#x25cc;" horiz-adv-x="1333" 
d="M1141 838q0 -38 -25 -62t-63 -24t-63 24t-25 62t25 62t63 24t63 -24t25 -62zM371 252q0 -38 -25 -62t-63 -24t-63 24t-25 62t25 62t63 24t63 -24t25 -62zM571 96q0 -38 -25 -62t-63 -24t-63 24t-25 62t25 62t63 24t63 -24t25 -62zM279 483q0 -38 -25 -62t-64 -24
q-38 0 -63 24t-25 62t25 62t63 24q39 0 64 -24t25 -62zM825 68q0 -38 -25 -62t-63 -24t-63 24t-25 62t25 62t63 24t63 -24t25 -62zM309 731q0 -38 -25 -62t-63 -24t-63 24t-25 62t25 62t63 24t63 -24t25 -62zM1061 162q0 -38 -25 -62t-63 -24t-63 24t-25 62t25 62t63 24
t63 -24t25 -62zM465 934q0 -38 -25 -62t-63 -24t-63 24t-25 62t25 62t63 24t63 -24t25 -62zM1210 358q0 -38 -25 -62t-63 -24t-63 24t-25 62t25 62t63 24t63 -24t25 -62zM705 1020q0 -38 -25 -62t-64 -24q-38 0 -63 24t-25 62t25 62t63 24q39 0 64 -24t25 -62zM1231 604
q0 -38 -25 -62t-63 -24t-63 24t-25 62t25 62t63 24t63 -24t25 -62zM952 989q0 -38 -25 -62t-63 -24t-63 24t-25 62t25 62t63 24t63 -24t25 -62z" />
    <glyph glyph-name="fi" unicode="&#xfb01;" horiz-adv-x="1220" 
d="M182 0v938h-133v190h133v80q0 194 103 283.5t325 89.5v-195q-106 0 -149 -40.5t-43 -137.5v-80h649v-1128h-233v938h-416v-938h-236zM950 1278q-62 0 -104.5 43t-42.5 106t42.5 106.5t104.5 43.5q63 0 106.5 -43.5t43.5 -106.5t-43.5 -106t-106.5 -43z" />
    <glyph glyph-name="fl" unicode="&#xfb02;" horiz-adv-x="1220" 
d="M182 0v938h-133v190h133v80q0 194 103 283.5t325 89.5v-195q-106 0 -149 -40.5t-43 -137.5v-80h209v-190h-209v-938h-236zM834 0v1516h233v-1516h-233z" />
    <glyph glyph-name="dvK_SSA" horiz-adv-x="1675" 
d="M385 1147q0 -103 78.5 -168t202.5 -68q157 97 157 234q0 90 -62 147.5t-157 57.5q-92 0 -155.5 -54t-63.5 -149zM780 -117v324q-31 -56 -102 -100t-176 -44q-162 0 -262.5 96t-100.5 247q0 65 20.5 120.5t49.5 94t78.5 76.5t90.5 61.5t103 54.5q-127 32 -207.5 120
t-80.5 228q0 170 118 272.5t299 102.5q108 0 196.5 -39.5t143 -120t54.5 -190.5q0 -159 -132 -277h396v607h456v-181h-249v-1335h-207v752h-606q-140 -67 -188 -101q-112 -85 -114 -202q0 -88 58.5 -147.5t154.5 -59.5q103 0 163.5 67t60.5 162h180v-588h-197z" />
    <glyph glyph-name="dvJ_NYA" horiz-adv-x="1673" 
d="M1260 0v889h-383q81 -47 127.5 -127t46.5 -189q0 -168 -106.5 -270t-272.5 -102q-111 0 -197.5 43t-134.5 112v-305h-209v570h201q12 -115 89.5 -179.5t186.5 -64.5q114 0 180 69t66 175q0 127 -85.5 197.5t-217.5 70.5h-53v172h762v274h-1309v181h1769v-181h-250v-1335
h-210z" />
    <glyph glyph-name="dvK" horiz-adv-x="1488" 
d="M920 0v375q-47 -89 -137.5 -142t-217.5 -53q-194 0 -313 130.5t-119 346.5q0 213 121.5 342t318.5 129q124 0 212 -51t135 -137v395h-969v181h1935v-181h-760v-399q45 89 130 140.5t206 51.5q189 0 306.5 -132t117.5 -339h-217q0 128 -76.5 207.5t-193.5 79.5
q-70 0 -124 -26t-85.5 -70.5t-47.5 -97.5t-16 -111v-639h-206zM635 360q70 0 126.5 26.5t90 69.5t51 94t17.5 103q0 55 -17.5 105.5t-51 92.5t-89.5 67.5t-127 25.5q-122 0 -203.5 -79.5t-81.5 -209.5q0 -135 80 -215t205 -80z" />
    <glyph glyph-name="dvKH" horiz-adv-x="1378" 
d="M-49 1335v181h1771v-181h-993v-248q0 -108 -27 -189.5t-76.5 -130.5t-112.5 -74t-140 -29v-170q0 -142 86 -229t237 -87q106 0 177.5 47t111.5 121q-160 121 -160 336q0 192 124.5 305t324.5 113q201 0 324.5 -112.5t123.5 -305.5q0 -195 -125.5 -307.5t-322.5 -112.5
q-62 0 -121 12q-64 -127 -182.5 -204.5t-280.5 -77.5q-244 0 -387 139t-143 387v301h67q137 0 212 67t75 228v221h-563zM1016 682q0 -117 70.5 -186.5t187.5 -69.5q119 0 189.5 69.5t70.5 186.5t-70.5 186.5t-189.5 69.5q-117 0 -187.5 -69.5t-70.5 -186.5z" />
    <glyph glyph-name="dvG" horiz-adv-x="1021" 
d="M-49 1335v181h1120v-181h-252v-526q0 -81 -20.5 -149t-63 -121t-113 -83t-163.5 -30q-178 0 -273.5 100t-95.5 271q0 43 2 63h209v-63q0 -80 36 -133.5t116 -53.5q151 0 151 191v534h-653z" />
    <glyph glyph-name="dvGH" horiz-adv-x="841" 
d="M-49 1335v181h1263v-181h-808v-129q0 -110 59.5 -166.5t191.5 -56.5h93v-174h-109q-133 0 -198.5 -56.5t-65.5 -148.5q0 -106 79 -162.5t206 -56.5q167 0 268.5 98.5t101.5 251.5h182q0 -110 -38.5 -206t-108.5 -167t-175 -112t-230 -41q-234 0 -368 96.5t-134 278.5
q0 123 74 204t182 103v4q-102 20 -164 93.5t-62 207.5v139h-239z" />
    <glyph glyph-name="dvNG" horiz-adv-x="1376" 
d="M1217 668q-52 0 -88.5 36t-36.5 87q0 52 36 88t89 36t88.5 -35.5t35.5 -88.5q0 -51 -36 -87t-88 -36zM797 -604l-254 422h215l260 -422h-221zM-49 1335v181h1474v-181h-464v-372h-367q-41 0 -76 -6.5t-68 -22t-52 -46t-19 -73.5q0 -78 53 -112.5t137 -34.5h93
q65 0 123.5 -11t113.5 -37t94.5 -65t63.5 -100t24 -138q0 -160 -114 -255t-326 -95q-228 0 -366 107t-142 288h213q2 -105 78.5 -168t210.5 -63q118 0 181 51.5t63 136.5q0 53 -20.5 92t-57 61t-81 32t-97.5 10h-80q-54 0 -104 8t-101.5 29.5t-89 55t-61 88.5t-23.5 126
q0 78 30.5 136.5t84 92t118 50t138.5 16.5h217v219h-801z" />
    <glyph glyph-name="dvC" horiz-adv-x="923" 
d="M102 901v170h748v-170h-76q-128 0 -206.5 -75t-78.5 -193q0 -122 82.5 -191t206.5 -69q144 1 233 101.5t89 252.5h184q5 -235 -139 -384.5t-387 -149.5q-135 0 -240 45t-168 138t-63 222q0 201 155 303h-340zM-49 1335v181h1333v-181h-1333z" />
    <glyph glyph-name="dvCH" horiz-adv-x="1677" 
d="M-49 1335v181h1775v-181h-1327v-186q0 -109 57.5 -166t182.5 -57h43v-174h-39q-141 0 -212 -64.5t-71 -165.5q0 -139 119.5 -212.5t339.5 -73.5q263 0 419.5 122.5t156.5 339.5q0 123 -58.5 193t-140.5 70q-77 0 -133.5 -54.5t-56.5 -161.5q0 -82 32 -180h-178
q-35 93 -35 203q0 92 31 161.5t84.5 110t118.5 60.5t139 20q170 0 278.5 -112.5t108.5 -317.5q0 -295 -208 -467t-560 -172q-307 0 -490.5 116.5t-183.5 334.5q0 134 73.5 219t193.5 113v6q-100 19 -162 93t-62 208v194h-235z" />
    <glyph glyph-name="dvJ" horiz-adv-x="1120" 
d="M555 250q-197 0 -306.5 117t-109.5 309v340h217v-336q0 -110 53.5 -176t147.5 -66q96 0 151.5 66t55.5 176v336h663v-185h-454v-155q0 -190 -113 -308t-305 -118zM-49 1335v181h1476v-181h-1476z" />
    <glyph glyph-name="dvJH" horiz-adv-x="1161" 
d="M399 131v-293h-202v512h192q11 -91 81 -150t189 -59q105 0 159 50t54 126q0 93 -65.5 145t-190.5 52h-114q-68 2 -128 20t-110 53t-79 93.5t-29 134.5q0 81 30.5 141t84.5 94.5t118.5 51t140.5 16.5h218v217h-797v181h1454v-181h-451v-372h-366q-42 0 -77 -6.5t-68.5 -22
t-52.5 -46.5t-19 -75q0 -75 53.5 -110t140.5 -35h840v-164l-410 2q76 -86 76 -215q0 -136 -90.5 -222.5t-257.5 -86.5q-70 0 -129 16.5t-97.5 43t-60 47t-37.5 42.5z" />
    <glyph glyph-name="dvNY" horiz-adv-x="1105" 
d="M592 162q-196 0 -317.5 104t-141.5 264h203q22 -80 88.5 -133t169.5 -53q131 0 202.5 86.5t71.5 216.5q0 127 -72 214t-202 87q-105 0 -171 -54t-87 -132h-203q18 161 139.5 264.5t319.5 103.5q191 0 312.5 -105t150.5 -277h317v-183h-315q-24 -182 -146.5 -292.5
t-318.5 -110.5zM-49 1335v181h1421v-181h-1421z" />
    <glyph glyph-name="dvTT" horiz-adv-x="1329" 
d="M848 -498l-254 422h215l260 -422h-221zM-49 1335v181h1427v-181h-411v-395h-230q-83 0 -152.5 -21.5t-123 -63.5t-83.5 -109.5t-30 -153.5q0 -146 96 -239t248 -93q156 0 252 97t96 251h205q0 -240 -150.5 -387t-398.5 -147q-247 0 -405 144t-158 374q0 250 161 390
t431 140h31v213h-805z" />
    <glyph glyph-name="dvTTH" horiz-adv-x="1380" 
d="M690 266q153 0 249.5 95t96.5 243t-96 241t-250 93q-151 0 -247.5 -93.5t-96.5 -240.5q0 -148 96.5 -243t247.5 -95zM690 86q-157 0 -283.5 63t-200 182t-73.5 273q0 207 126.5 341.5t322.5 166.5v223h-631v181h1479v-181h-635v-223q199 -31 326.5 -165t127.5 -343
q0 -154 -73.5 -273t-200.5 -182t-285 -63zM846 -485l-254 422h215l260 -422h-221z" />
    <glyph glyph-name="dvDD" horiz-adv-x="1171" 
d="M782 -604l-254 422h215l261 -422h-222zM-49 1335v181h1268v-181h-269v-372h-356q-41 0 -76 -6.5t-68 -22t-52 -46t-19 -73.5q0 -78 53 -112.5t137 -34.5h93q65 0 123.5 -11t113.5 -37t94.5 -65t63.5 -100t24 -138q0 -160 -114 -255t-326 -95q-228 0 -366 107t-142 288
h213q2 -105 78.5 -168t210.5 -63q118 0 181 51.5t63 136.5q0 53 -20.5 92t-57 61t-81 32t-97.5 10h-80q-54 0 -104 8t-101.5 29.5t-89 55t-61 88.5t-23.5 126q0 78 30.5 136.5t84 92t118 50t138.5 16.5h208v219h-792z" />
    <glyph glyph-name="dvDDH" horiz-adv-x="1320" 
d="M866 -565l-254 422h215l260 -422h-221zM-49 1335v181h1419v-181h-364v-354h-207q-204 0 -331.5 -106.5t-127.5 -307.5q0 -178 115 -290.5t311 -112.5q139 0 229 68t90 180q0 80 -50 131t-128 51q-68 0 -115 -43.5t-47 -112.5q0 -21 7 -39h-158q-6 35 -6 68
q0 132 91.5 207.5t235.5 75.5q162 0 258.5 -93.5t96.5 -244.5q0 -186 -136 -296t-372 -110q-179 0 -321 67.5t-225 197.5t-83 302q0 136 45.5 243.5t127 176t190 104.5t237.5 36h70v202h-852z" />
    <glyph glyph-name="dvNN" horiz-adv-x="1167" 
d="M-49 1335v181h1266v-181h-220v-561q0 -189 -106 -305.5t-303 -116.5q-194 0 -301 118t-107 304v561h-229zM590 535q92 0 144 60t52 159v581h-395v-581q0 -98 54 -158.5t145 -60.5z" />
    <glyph glyph-name="dvT" horiz-adv-x="798" 
d="M1118 831h-391q-175 0 -276 -83.5t-101 -243.5q0 -156 89 -243t257 -87h43v-170h-73q-117 0 -213.5 31t-168.5 92t-111.5 158.5t-39.5 222.5q0 129 44 228t124 159.5t184.5 90.5t231.5 30h401v-185zM-49 1335v181h1167v-181h-1167z" />
    <glyph glyph-name="dvTH" horiz-adv-x="968" 
d="M1356 725q0 -162 -82 -284t-220 -185t-309 -63q-280 0 -439 150t-159 415q0 58 9 119h194q410 0 410 272q0 87 -52 144t-141 57q-93 0 -146.5 -56.5t-53.5 -152.5q0 -30 8 -84h-195q-8 58 -8 90q0 180 111.5 283.5t285.5 103.5q176 0 284 -108.5t108 -282.5
q0 -205 -142 -313.5t-389 -108.5h-76q5 -157 102.5 -252.5t284.5 -95.5q189 0 308.5 95t119.5 257h187z" />
    <glyph glyph-name="dvD" horiz-adv-x="1247" 
d="M1139 -614l-254 421h215l260 -421h-221zM-49 1335v181h1347l-2 -181h-276v-391h-322q-152 0 -249 -79.5t-97 -223.5q0 -131 77.5 -209t209.5 -78q66 0 123 25.5t97 84.5t40 142h199v-649h-211v367q-45 -66 -125.5 -104t-181.5 -38q-196 0 -321.5 123t-125.5 342
q0 117 42 209.5t116.5 151t172.5 89.5t214 31h127v207h-854z" />
    <glyph glyph-name="dvDH" horiz-adv-x="876" 
d="M664 186q-143 0 -252.5 38.5t-175.5 122t-66 202.5q0 125 73.5 202.5t172.5 94.5v6q-110 28 -185 113.5t-75 224.5q0 153 100.5 248.5t259.5 95.5q162 0 255 -92t93 -240q0 -26 -4 -72h-162q2 25 2 48q0 76 -47.5 126t-130.5 50q-84 0 -133 -53t-49 -134
q0 -109 82.5 -168t214.5 -59h119v-174h-111q-123 0 -189.5 -52.5t-66.5 -142.5q0 -103 83.5 -153.5t209.5 -50.5q180 0 282.5 85t102.5 224h188q0 -220 -160.5 -355t-430.5 -135z" />
    <glyph glyph-name="dvN" horiz-adv-x="1046" 
d="M549 211q-183 0 -305.5 111t-122.5 296q0 192 126 301t320 109h801v-180h-504q92 -106 92 -256q0 -176 -115.5 -278.5t-291.5 -102.5zM553 393q101 0 166 64t65 164q0 99 -65 163t-166 64q-104 0 -171 -64.5t-67 -165.5q0 -100 66 -162.5t172 -62.5zM-49 1335v181h1417
v-181h-1417z" />
    <glyph glyph-name="dvP" horiz-adv-x="741" 
d="M-49 1335v181h1167v-181h-739v-440q0 -156 71 -244t214 -88q130 0 203 84.5t73 210.5h178q0 -210 -125.5 -343.5t-345.5 -133.5q-233 0 -358 140t-125 374v440h-213z" />
    <glyph glyph-name="dvPH" horiz-adv-x="1486" 
d="M641 563q122 0 191 81.5t69 203.5v487h-522v-450q0 -151 65.5 -236.5t196.5 -85.5zM-49 1335v181h1935v-181h-770v-399q47 88 135.5 140t212.5 52q200 0 311 -128.5t111 -342.5h-217q0 132 -69.5 209.5t-200.5 77.5q-95 0 -161 -48.5t-94 -120.5t-28 -159v-616h-215v532
q-101 -151 -311 -151q-207 0 -316.5 136.5t-109.5 367.5v450h-213z" />
    <glyph glyph-name="dvB" horiz-adv-x="831" 
d="M657 166q-234 0 -379 137t-145 356q0 218 143.5 355t378.5 137q104 0 191 -28t147 -75t102 -110t61.5 -132t19.5 -142q0 -102 -34 -191.5t-98 -158t-164 -108.5t-223 -40zM662 1001q-137 0 -236 -83l528 -445q52 85 52 184q0 65 -22.5 125.5t-64 110t-108.5 79t-149 29.5
zM-49 1335v181h1229v-181h-1229zM664 317q140 0 231 84l-530 445q-52 -84 -52 -191q0 -154 102.5 -246t248.5 -92z" />
    <glyph glyph-name="dvBH" horiz-adv-x="1062" 
d="M541 365q92 0 142 64t50 179v152h-168q-100 0 -160.5 -53.5t-60.5 -145.5q0 -89 55.5 -142.5t141.5 -53.5zM543 182q-180 0 -290 104.5t-110 274.5q0 178 117 276.5t299 98.5h174v182q0 109 -40.5 170.5t-125.5 61.5q-74 0 -120 -51.5t-46 -139.5q0 -33 9 -74h-215
q-9 56 -9 82q0 165 98.5 266t274.5 101q195 0 285 -121.5t90 -331.5v-145h407v-176h-407v-142q0 -208 -101.5 -322t-289.5 -114z" />
    <glyph glyph-name="dvM" horiz-adv-x="1050" 
d="M489 365q92 0 143.5 64.5t51.5 178.5v152h-170q-99 0 -160 -53.5t-61 -145.5q0 -89 55 -142.5t141 -53.5zM-49 1335v181h1382v-181h-448v-399h448v-176h-448v-142q0 -208 -101.5 -322t-291.5 -114q-180 0 -289 104t-109 275q0 178 116 276.5t298 98.5h176v399h-733z" />
    <glyph glyph-name="dvY" horiz-adv-x="903" 
d="M1303 733q1 -148 -70 -267t-205 -188t-307 -69q-275 0 -431.5 154.5t-156.5 424.5q0 52 6 105h27q177 0 262.5 74.5t85.5 240.5v127h-563v181h1352v-181h-576v-164q0 -374 -383 -395v-8q0 -177 105 -277t280 -100q164 0 270.5 96t106.5 246h197z" />
    <glyph glyph-name="dvR" horiz-adv-x="1093" 
d="M705 -594l-254 422h215l260 -422h-221zM-49 1335v181h1192v-181h-225v-170q0 -236 -115 -365.5t-357 -129.5h-77v-256q0 -113 51 -180.5t151 -67.5q93 0 147 62.5t54 166.5v45h207v-39q0 -192 -107.5 -305.5t-296.5 -113.5q-202 0 -309.5 122t-107.5 320v422h213
q334 0 334 319v170h-754z" />
    <glyph glyph-name="dvL" horiz-adv-x="1345" 
d="M932 823q17 56 45 102.5t70.5 87.5t107 64t143.5 23q188 0 307 -127t119 -348l-217 -4q0 128 -62.5 209t-178.5 81q-123 0 -185.5 -91.5t-62.5 -244.5v-36h-180v36q0 150 -60 243t-178 93q-120 0 -185 -80t-65 -210q0 -142 78.5 -229t216.5 -87q17 0 57 4v-188
q-54 -4 -69 -4q-160 0 -274.5 67t-170 180t-55.5 261q0 223 122.5 349t315.5 126q76 0 138 -23.5t104 -64.5t69.5 -87.5t43.5 -101.5h6zM-49 1335v181h1773v-181h-1773z" />
    <glyph glyph-name="dvV" horiz-adv-x="786" 
d="M653 176q-237 0 -378.5 134.5t-141.5 353.5q0 210 143 341.5t377 131.5q105 0 193 -27.5t148 -74t102 -109t61 -131.5t19 -142q0 -90 -32.5 -173.5t-94.5 -152t-165 -110t-231 -41.5zM657 346q77 0 139 27.5t99 73t56.5 99t19.5 109.5q0 59 -19.5 113t-56.5 98.5
t-98.5 71.5t-139.5 27q-136 0 -226.5 -85t-90.5 -223q0 -142 89 -226.5t228 -84.5zM-49 1335v181h1225v-181h-1225z" />
    <glyph glyph-name="dvSH" horiz-adv-x="1110" 
d="M623 -16q-215 0 -334 125.5t-119 339.5v368h295q80 0 147.5 17t121 50.5t84 91t30.5 132.5q0 109 -59.5 174.5t-161.5 65.5t-161.5 -65.5t-59.5 -174.5q0 -26 4 -84h-213q-9 70 -9 90q0 189 119.5 304.5t319.5 115.5q199 0 318.5 -116t119.5 -324q0 -113 -40 -201.5
t-111.5 -144.5t-166 -84.5t-206.5 -28.5h-154v-201q0 -120 56 -192t173 -72q101 0 159.5 66.5t58.5 175.5v28h208v-30q0 -199 -112.5 -312.5t-306.5 -113.5z" />
    <glyph glyph-name="dvSS" horiz-adv-x="790" 
d="M668 549q111 0 182.5 52.5t93.5 129.5l-573 445v-287q0 -163 73.5 -251.5t223.5 -88.5zM-49 1335v181h1186v-181h-764l764 -579q0 -70 -31.5 -138t-89.5 -124.5t-151 -91.5t-206 -35q-241 0 -368 143t-127 385v440h-213z" />
    <glyph glyph-name="dvS" horiz-adv-x="1064" 
d="M-49 1335v181h1341v-181h-409v-172q0 -181 -99 -301h508v-176h-923v-270q0 -113 52 -181.5t154 -68.5q96 0 150.5 63t54.5 166v25h207q2 -14 2 -35q0 -186 -109 -294.5t-300 -108.5q-204 0 -313 123t-109 321v416h178q168 0 251 85.5t83 235.5v172h-719z" />
    <glyph glyph-name="dvH" horiz-adv-x="1200" 
d="M1090 135q-21 -152 -145 -252t-318 -100q-225 0 -354.5 128t-129.5 331q0 124 54.5 221t154.5 155q-159 80 -159 246q0 125 90 192.5t241 67.5h238v211h-811v181h1296v-181h-280v-366h-369q-85 0 -138.5 -35t-53.5 -111q0 -104 114 -145q58 10 111 10q105 0 190 -28.5
t139.5 -78t87 -111t42.5 -132.5h-205q-17 71 -84 124.5t-174 53.5q-126 0 -199.5 -78t-73.5 -200q0 -123 73.5 -200t199.5 -77q102 0 169.5 51.5t88.5 122.5h205zM768 -788l-254 421h215l260 -421h-221z" />
    <glyph glyph-name="dvLL" horiz-adv-x="2021" 
d="M596 170q-199 0 -331 129t-132 336q0 211 131.5 341t329.5 130q146 0 251.5 -71t162.5 -197h6q56 125 161 196.5t250 71.5q198 0 330.5 -130t132.5 -341q0 -207 -132 -336t-331 -129q-149 0 -258 74.5t-153 197.5h-8q-42 -123 -151.5 -197.5t-258.5 -74.5zM625 354
q124 0 202 78t78 203q0 127 -77.5 207t-202.5 80q-124 0 -203.5 -80t-79.5 -209q0 -125 80 -202t203 -77zM1395 354q124 0 203 77t79 202q0 130 -78 209.5t-202 79.5q-125 0 -203 -80t-78 -207q0 -125 77.5 -203t201.5 -78zM-49 1335v181h2117v-181h-2117z" />
    <glyph glyph-name="dvK_SS" horiz-adv-x="1101" 
d="M385 1147q0 -103 78.5 -168t202.5 -68q157 97 157 234q0 90 -62 147.5t-157 57.5q-92 0 -155.5 -54t-63.5 -149zM780 -117v324q-31 -56 -102 -100t-176 -44q-162 0 -262.5 96t-100.5 247q0 65 20.5 120.5t49.5 94t78.5 76.5t90.5 61.5t103 54.5q-127 32 -207.5 120
t-80.5 228q0 170 118 272.5t299 102.5q108 0 196.5 -39.5t143 -120t54.5 -190.5q0 -159 -132 -277h474v-157h-684q-140 -67 -188 -101q-112 -85 -114 -202q0 -88 58.5 -147.5t154.5 -59.5q103 0 163.5 67t60.5 162h180v-588h-197z" />
    <glyph glyph-name="dvJ_NY" horiz-adv-x="1101" 
d="M-49 1335v181h1497v-181h-1497zM498 889v172h950v-172h-571q81 -47 127.5 -127t46.5 -189q0 -168 -106.5 -270t-272.5 -102q-111 0 -197.5 43t-134.5 112v-305h-209v570h201q12 -115 89.5 -179.5t186.5 -64.5q114 0 180 69t66 175q0 127 -85.5 197.5t-217.5 70.5h-53z
" />
    <glyph glyph-name="dvKx" horiz-adv-x="1488" 
d="M920 0v375q-47 -89 -137.5 -142t-217.5 -53q-194 0 -313 130.5t-119 346.5q0 213 121.5 342t318.5 129q124 0 212 -51t135 -137v395h-969v181h1935v-181h-760v-399q45 89 130 140.5t206 51.5q189 0 306.5 -132t117.5 -339h-217q0 128 -76.5 207.5t-193.5 79.5
q-70 0 -124 -26t-85.5 -70.5t-47.5 -97.5t-16 -111v-639h-206zM532 -242q-57 0 -96 38t-39 95q0 58 39 98t96 40q58 0 98 -39.5t40 -98.5q0 -57 -39.5 -95t-98.5 -38zM635 360q70 0 126.5 26.5t90 69.5t51 94t17.5 103q0 55 -17.5 105.5t-51 92.5t-89.5 67.5t-127 25.5
q-122 0 -203.5 -79.5t-81.5 -209.5q0 -135 80 -215t205 -80z" />
    <glyph glyph-name="dvKHx" horiz-adv-x="1378" 
d="M-49 1335v181h1771v-181h-993v-248q0 -108 -27 -189.5t-76.5 -130.5t-112.5 -74t-140 -29v-170q0 -142 86 -229t237 -87q106 0 177.5 47t111.5 121q-160 121 -160 336q0 192 124.5 305t324.5 113q201 0 324.5 -112.5t123.5 -305.5q0 -195 -125.5 -307.5t-322.5 -112.5
q-62 0 -121 12q-64 -127 -182.5 -204.5t-280.5 -77.5q-244 0 -387 139t-143 387v301h67q137 0 212 67t75 228v221h-563zM651 -424q-57 0 -96 38t-39 95q0 58 39 97.5t96 39.5q59 0 98 -39t39 -98q0 -57 -39 -95t-98 -38zM1016 682q0 -117 70.5 -186.5t187.5 -69.5
q119 0 189.5 69.5t70.5 186.5t-70.5 186.5t-189.5 69.5q-117 0 -187.5 -69.5t-70.5 -186.5z" />
    <glyph glyph-name="dvGx" horiz-adv-x="1021" 
d="M-49 1335v181h1120v-181h-252v-526q0 -81 -20.5 -149t-63 -121t-113 -83t-163.5 -30q-178 0 -273.5 100t-95.5 271q0 43 2 63h209v-63q0 -80 36 -133.5t116 -53.5q151 0 151 191v534h-653zM465 -2q-57 0 -96 38t-39 95q0 58 39 97.5t96 39.5q59 0 98 -39t39 -98
q0 -57 -39 -95t-98 -38z" />
    <glyph glyph-name="dvJx" horiz-adv-x="1120" 
d="M555 250q-197 0 -306.5 117t-109.5 309v340h217v-336q0 -110 53.5 -176t147.5 -66q96 0 151.5 66t55.5 176v336h663v-185h-454v-155q0 -190 -113 -308t-305 -118zM-49 1335v181h1476v-181h-1476zM561 -170q-57 0 -96 38t-39 95q0 58 39 97.5t96 39.5q59 0 98 -39t39 -98
q0 -57 -39 -95t-98 -38z" />
    <glyph glyph-name="dvPHx" horiz-adv-x="1486" 
d="M641 563q122 0 191 81.5t69 203.5v487h-522v-450q0 -151 65.5 -236.5t196.5 -85.5zM-49 1335v181h1935v-181h-770v-399q47 88 135.5 140t212.5 52q200 0 311 -128.5t111 -342.5h-217q0 132 -69.5 209.5t-200.5 77.5q-95 0 -161 -48.5t-94 -120.5t-28 -159v-616h-215v532
q-101 -151 -311 -151q-207 0 -316.5 136.5t-109.5 367.5v450h-213zM512 -31q-57 0 -96 38t-39 95q0 58 39 98t96 40q58 0 97.5 -39.5t39.5 -98.5q0 -57 -39 -95t-98 -38z" />
    <glyph glyph-name="dvReph" horiz-adv-x="0" 
d="M-401 1479v182q0 87 19.5 158.5t61 129.5t112.5 90t167 32q169 0 261.5 -100t86.5 -267h-188q3 85 -39.5 135.5t-116.5 50.5q-164 0 -164 -227v-184h-200z" />
    <glyph glyph-name="dvEyelash" horiz-adv-x="636" 
d="M825 768q-48 -29 -121.5 -47.5t-152.5 -18.5q-74 0 -141.5 13.5t-131 44.5t-110.5 77.5t-76 118.5t-31 162h205q1 -70 29 -122t74 -80.5t99.5 -42t113.5 -13.5q77 0 163 31zM-49 1335v181h844v-181h-844z" />
    <glyph glyph-name="dvRashtrasign" horiz-adv-x="0" 
d="M-1006 -199l328 367h287l330 -367h-224l-250 285l-249 -285h-222z" />
    <glyph glyph-name="dvK_RA" horiz-adv-x="2019" 
d="M920 0v385q-28 -50 -70 -90l-379 -389h-233l288 293q-174 12 -283.5 137t-109.5 321q0 213 121.5 342t318.5 129q124 0 212 -51t135 -137v395h-969v181h2115v-181h-940v-399q45 89 130 140.5t206 51.5q189 0 306.5 -131t117.5 -335q0 -218 -119 -343.5t-307 -125.5
q-74 0 -131 14v170q31 -8 76 -8q116 0 190 77t74 211q0 128 -76.5 207.5t-193.5 79.5q-69 0 -123 -26.5t-85.5 -71t-47.5 -97t-17 -110.5v-639h-206zM635 360q27 0 59 7l8 8l13 -4q98 25 151.5 106.5t53.5 175.5q0 55 -17.5 105.5t-51 92.5t-89.5 67.5t-127 25.5
q-122 0 -203.5 -79.5t-81.5 -209.5q0 -135 80 -215t205 -80z" />
    <glyph glyph-name="dvKH_RA" horiz-adv-x="1927" 
d="M1513 0v410q-92 -146 -288 -146q-39 0 -76 6q-31 -57 -72 -104l-422 -455h-229v13l266 276h-2q-244 0 -387 137t-143 381v301h67q137 0 212 67t75 228v221h-563v181h2025v-181h-250v-1335h-213zM1268 430q61 0 109.5 22.5t77 59.5t43.5 81t15 91q0 102 -62 178t-183 76
q-107 0 -179.5 -67.5t-72.5 -182.5q0 -120 71.5 -189t180.5 -69zM696 178q103 0 174.5 45t112.5 117q-76 57 -118 145.5t-42 202.5q0 184 114 300t288 116q196 0 288 -146v377h-784v-248q0 -108 -27 -189.5t-76.5 -130.5t-112.5 -74t-140 -29v-170q0 -142 86 -229t237 -87z
" />
    <glyph glyph-name="dvG_RA" horiz-adv-x="1566" 
d="M1157 0v473l-512 -514h-248l756 735v641h-334v-407q0 -81 -20.5 -149t-63 -121t-113 -83t-163.5 -30q-178 0 -273.5 99.5t-95.5 270.5q0 44 2 64h209v-64q0 -80 36 -133t116 -53q151 0 151 189v417h-653v181h1665v-181h-250v-1335h-209z" />
    <glyph glyph-name="dvGH_RA" horiz-adv-x="1447" 
d="M662 385q158 0 264 98t106 252v600h-626v-125q0 -110 59.5 -168.5t191.5 -58.5h93v-174h-109q-133 0 -198.5 -56.5t-65.5 -148.5q0 -106 79 -162.5t206 -56.5zM-49 1335v181h1546v-181h-248v-1335h-217v424q-20 -29 -47 -59h2l-446 -471h-236l328 325h-21q-200 0 -326 95
t-126 270q0 123 74 204t182 103v4q-102 20 -164 93.5t-62 207.5v139h-239z" />
    <glyph glyph-name="dvNG_RA" horiz-adv-x="1376" 
d="M1217 668q-52 0 -88.5 36t-36.5 87q0 52 36 88t89 36t88.5 -35.5t35.5 -88.5q0 -51 -36 -87t-88 -36zM-49 1335v181h1474v-181h-464v-372h-367q-41 0 -76 -6.5t-68 -22t-52 -46t-19 -73.5q0 -78 53 -112.5t137 -34.5h93q65 0 123.5 -11t113.5 -37t94.5 -65t63.5 -100
t24 -138q0 -120 -66 -205.5t-192 -121.5l283 -314h-223l-250 285l-250 -285h-221l282 316q-144 40 -226 136.5t-85 233.5h213q2 -105 78.5 -168t210.5 -63q118 0 181 51.5t63 136.5q0 53 -20.5 92t-57 61t-81 32t-97.5 10h-80q-54 0 -104 8t-101.5 29.5t-89 55t-61 88.5
t-23.5 126q0 78 30.5 136.5t84 92t118 50t138.5 16.5h217v219h-801z" />
    <glyph glyph-name="dvC_RA" horiz-adv-x="1515" 
d="M-49 1335v181h1614v-181h-250v-1335h-215v395q-40 -59 -88 -96l-373 -393h-233l294 297q-178 5 -295.5 110.5t-117.5 284.5q0 201 155 303h-340v170h748v-170h-76q-128 0 -206.5 -75t-78.5 -193q0 -122 82.5 -191t206.5 -69q144 1 233 101.5t89 252.5v608h-1149z" />
    <glyph glyph-name="dvCH_RA" horiz-adv-x="1677" 
d="M-49 1335v181h1775v-181h-430v-225q131 -30 210 -138.5t79 -281.5q0 -241 -141 -402t-391 -214l282 -314h-223l-250 285l-250 -285h-221l268 299q-240 29 -378 142t-138 301q0 134 73.5 219t193.5 113v6q-100 19 -162 93t-62 208v194h-235zM819 236q263 0 419.5 122.5
t156.5 339.5q0 123 -58.5 193t-140.5 70q-77 0 -133.5 -54.5t-56.5 -161.5q0 -82 32 -180h-178q-35 93 -35 203q0 148 75.5 232.5t197.5 109.5v225h-699v-186q0 -109 57.5 -166t182.5 -57h43v-174h-39q-141 0 -212 -64.5t-71 -165.5q0 -139 119.5 -212.5t339.5 -73.5z" />
    <glyph glyph-name="dvJ_RA" horiz-adv-x="1732" 
d="M-49 1335v181h1831v-181h-250v-1335h-201v446l-489 -524h-238l723 744v182h-362v-29q0 -191 -109.5 -309.5t-300.5 -118.5q-197 0 -306.5 118t-109.5 310v203h217v-199q0 -111 53.5 -176t147.5 -65q96 0 151.5 65t55.5 176v199h563v313h-1376z" />
    <glyph glyph-name="dvJH_RA" horiz-adv-x="1888" 
d="M565 668h912v667h-523v-372h-366q-42 0 -77 -6.5t-68.5 -22t-52.5 -46.5t-19 -75q0 -75 53.5 -110t140.5 -35zM1483 0v190l-322 -413h-217l539 657v70l-490 2q78 -85 78 -215q0 -136 -90.5 -222.5t-257.5 -86.5q-70 0 -129 16.5t-97.5 43t-60 47t-37.5 42.5v-293h-202
v512h192q11 -91 81 -150t189 -59q105 0 159 50t54 126q0 93 -65.5 145t-190.5 52h-114q-68 2 -128 20t-110 53t-79 93.5t-29 134.5q0 81 30.5 141t84.5 94.5t118.5 51t140.5 16.5h218v217h-797v181h1984v-181h-247v-1335h-205z" />
    <glyph glyph-name="dvNY_RA" horiz-adv-x="1673" 
d="M-49 1335v181h1866v-181h-250v-1335h-211v274l-408 -442h-221l629 662v112h-297q-21 -180 -144 -290.5t-323 -110.5q-197 0 -322 105t-137 263h203q14 -77 84 -131.5t174 -54.5q131 0 202.5 81.5t71.5 203.5q0 116 -72 196t-202 80q-105 0 -171 -54t-87 -132h-203
q18 161 139.5 264.5t319.5 103.5q184 0 304 -93.5t155 -248.5h301v547h-1401z" />
    <glyph glyph-name="dvTT_RA" horiz-adv-x="1329" 
d="M-49 1335v181h1427v-181h-411v-395h-230q-83 0 -152.5 -21.5t-123 -63.5t-83.5 -109.5t-30 -153.5q0 -146 96 -239t248 -93q156 0 252 97t96 251h205q0 -188 -94.5 -322.5t-261.5 -185.5l274 -305h-223l-244 279h-12l-244 -279h-221l275 307q-165 52 -263 181.5
t-98 308.5q0 250 161 390t431 140h31v213h-805z" />
    <glyph glyph-name="dvTTH_RA" horiz-adv-x="1384" 
d="M690 266q153 0 249.5 95t96.5 243t-96 241t-250 93q-151 0 -247.5 -93.5t-96.5 -240.5q0 -148 96.5 -243t247.5 -95zM946 -209l-250 285l-250 -285h-221l285 320q-171 47 -274 177.5t-103 315.5q0 207 126.5 341.5t322.5 166.5v223h-631v181h1479v-181h-635v-223
q199 -31 326.5 -165t127.5 -343q0 -183 -100 -313t-268 -178l288 -322h-223z" />
    <glyph glyph-name="dvDD_RA" horiz-adv-x="1171" 
d="M-49 1335v181h1268v-181h-269v-372h-356q-41 0 -76 -6.5t-68 -22t-52 -46t-19 -73.5q0 -78 53 -112.5t137 -34.5h93q65 0 123.5 -11t113.5 -37t94.5 -65t63.5 -100t24 -138q0 -122 -69 -208t-199 -121l281 -312h-224l-249 285l-250 -285h-221l284 320q-139 40 -218.5 136
t-82.5 230h213q2 -105 78.5 -168t210.5 -63q118 0 181 51.5t63 136.5q0 53 -20.5 92t-57 61t-81 32t-97.5 10h-80q-54 0 -104 8t-101.5 29.5t-89 55t-61 88.5t-23.5 126q0 78 30.5 136.5t84 92t118 50t138.5 16.5h208v219h-792z" />
    <glyph glyph-name="dvDDH_RA" horiz-adv-x="1320" 
d="M-49 1335v181h1419v-181h-364v-354h-207q-204 0 -331.5 -106.5t-127.5 -307.5q0 -178 115 -290.5t311 -112.5q139 0 229 68t90 180q0 80 -50 131t-128 51q-68 0 -115 -43.5t-47 -112.5q0 -21 7 -39h-158q-6 35 -6 68q0 132 91.5 207.5t235.5 75.5q162 0 258.5 -93.5
t96.5 -244.5q0 -152 -92.5 -255t-259.5 -137l274 -305h-223l-250 285l-250 -285h-221l289 324q-185 55 -294.5 195t-109.5 339q0 136 45.5 243.5t127 176t190 104.5t237.5 36h70v202h-852z" />
    <glyph glyph-name="dvNN_RA" horiz-adv-x="1771" 
d="M590 692q92 0 144 61t52 160v422h-395v-422q0 -98 54 -159.5t145 -61.5zM-49 1335v181h1870v-181h-250v-1335h-203v477l-516 -551h-246l754 781v628h-363v-403q0 -188 -106.5 -305t-302.5 -117q-194 0 -301 118t-107 304v403h-229z" />
    <glyph glyph-name="dvT_RA" horiz-adv-x="1431" 
d="M-49 1335v181h1530v-181h-250v-1335h-207v498l-504 -498h-278v10l770 711q-43 84 -129 136t-197 52q-145 0 -240.5 -87.5t-95.5 -243.5h-215q-3 230 134.5 365.5t363.5 135.5q132 0 230 -52t157 -132v440h-1069z" />
    <glyph glyph-name="dvTH_RA" horiz-adv-x="1585" 
d="M1169 0v444q-32 -72 -106 -131l6 -2l-545 -458h-264v12l412 334q-244 12 -384.5 161.5t-140.5 397.5q0 58 9 119h194q410 0 410 272q0 87 -52 144t-141 57q-93 0 -146.5 -56.5t-53.5 -152.5q0 -30 8 -84h-195q-8 58 -8 90q0 180 111.5 283.5t285.5 103.5
q176 0 284 -108.5t108 -282.5q0 -205 -142 -313.5t-389 -108.5h-76q5 -157 102.5 -252.5t284.5 -95.5q182 0 305 114.5t123 311.5v717h465v-181h-250v-1335h-215z" />
    <glyph glyph-name="dvD_RA" horiz-adv-x="1247" 
d="M-49 1335v181h1345v-181h-276v-391h-322q-152 0 -249 -79.5t-97 -223.5q0 -131 77.5 -209t209.5 -78q66 0 123 25.5t97 84.5t40 142h199v-649h-211v369q-20 -27 -41 -45h2l-395 -408h-234l318 320q-179 12 -291.5 131.5t-112.5 322.5q0 117 42 209.5t116.5 151
t172.5 89.5t214 31h127v207h-854z" />
    <glyph glyph-name="dvDH_RA" horiz-adv-x="1470" 
d="M621 193q-197 0 -324 93t-127 263q0 125 73.5 202.5t172.5 94.5v6q-110 28 -185 113.5t-75 224.5q0 153 100.5 248.5t259.5 95.5q162 0 255 -92t93 -240q0 -26 -4 -72h-162q2 25 2 48q0 76 -47.5 126t-130.5 50q-84 0 -133 -53t-49 -134q0 -109 82.5 -168t214.5 -59h119
v-174h-111q-123 0 -189.5 -52.5t-66.5 -142.5q0 -100 78 -152t205 -52q173 0 284 111t111 288v750h461v-181h-246v-1335h-215v418q-26 -45 -63 -82h2l-447 -471h-235l327 328h-30z" />
    <glyph glyph-name="dvN_RA" horiz-adv-x="1710" 
d="M553 393q101 0 166 64t65 164q0 99 -65 163t-166 64q-104 0 -171 -64.5t-67 -165.5q0 -100 66 -162.5t172 -62.5zM-49 1335v181h1806v-181h-248v-1335h-194v356l-469 -516h-236l693 723v285h-439q92 -106 92 -256q0 -168 -115.5 -274.5t-291.5 -106.5q-183 0 -305.5 111
t-122.5 296q0 192 126 301t320 109h736v307h-1352z" />
    <glyph glyph-name="dvP_RA" horiz-adv-x="1353" 
d="M662 563q130 0 204 84.5t74 210.5v477h-561v-440q0 -157 70 -244.5t213 -87.5zM-49 1335v181h1452v-181h-250v-1335h-213v543q-25 -35 -53 -58l-471 -518h-236l410 424q-208 6 -317 141.5t-109 362.5v440h-213z" />
    <glyph glyph-name="dvPH_RA" horiz-adv-x="2017" 
d="M641 563q122 0 191 81.5t69 203.5v487h-522v-450q0 -151 65.5 -236.5t196.5 -85.5zM-49 1335v181h2115v-181h-950v-399q47 88 135.5 140t212.5 52q187 0 304.5 -129t117.5 -331q0 -221 -118.5 -348t-307.5 -127q-75 0 -137 16v168q42 -10 84 -10q116 0 189 78.5t73 211.5
q0 128 -76 207.5t-194 79.5q-95 0 -161 -48.5t-94 -120.5t-28 -159v-616h-215v539q-23 -33 -49 -56l-457 -516h-235l401 424q-193 10 -295 143t-102 351v450h-213z" />
    <glyph glyph-name="dvB_RA" horiz-adv-x="1409" 
d="M952 293l-395 -408h-229l301 293q-213 2 -354.5 134.5t-141.5 346.5q0 218 140 354t354 136q126 0 222.5 -52.5t154.5 -138.5v377h-1053v181h1507v-181h-248v-1335h-206v356q-26 -37 -52 -63zM670 1006q-138 0 -232 -82l527 -443q49 82 49 183q0 65 -22.5 125.5t-64 109
t-108.5 78t-149 29.5zM672 324q140 0 231 84l-530 442q-51 -79 -51 -191q0 -153 101.5 -244t248.5 -91z" />
    <glyph glyph-name="dvBH_RA" horiz-adv-x="1662" 
d="M541 403q94 0 144 64.5t50 179.5v123h-174q-97 0 -158 -50t-61 -136q0 -82 55.5 -131.5t143.5 -49.5zM543 225q-180 0 -290 99t-110 260q0 172 116.5 266t299.5 94h176v174q0 232 -172 232q-75 0 -120.5 -51t-45.5 -138q0 -31 6 -71h-208q-9 61 -9 81q0 164 98.5 263.5
t274.5 99.5q99 0 171.5 -33.5t115.5 -95.5t63.5 -142.5t20.5 -181.5v-137h366v572h457v-181h-252v-1335h-194v356l-514 -516h-238l741 711v219h-366v-111q0 -201 -102.5 -317.5t-284.5 -116.5z" />
    <glyph glyph-name="dvM_RA" horiz-adv-x="1644" 
d="M489 414q94 0 145.5 65t51.5 180v146h-176q-96 0 -156.5 -53.5t-60.5 -143.5q0 -88 54.5 -141t141.5 -53zM1237 977v358h-356v-358h356zM-49 1335v181h1741v-181h-250v-1335h-195v358l-516 -518h-237l743 713v252h-356v-135q0 -202 -102 -317t-287 -115
q-179 0 -288.5 101t-109.5 267q0 177 116 274t298 97h178v358h-735z" />
    <glyph glyph-name="dvY_RA" horiz-adv-x="1521" 
d="M723 391q166 0 274.5 103.5t108.5 265.5v575h-379v-164q0 -374 -383 -395v-8q0 -173 100 -275t279 -102zM-49 1335v181h1620v-181h-250v-1335h-215v412q-28 -42 -68 -76h2l-544 -461h-263v12l406 328q-242 12 -374 165t-132 408q0 52 6 105h27q177 0 262.5 74.5
t85.5 240.5v127h-563z" />
    <glyph glyph-name="dvL_RA" horiz-adv-x="1857" 
d="M1225 117q-16 0 -70 4v188q40 -4 57 -4q138 0 216.5 87t78.5 229q0 128 -62.5 209t-178.5 81q-123 0 -185.5 -91.5t-62.5 -244.5v-36h-180v36q0 150 -60 243t-178 93q-120 0 -185 -80t-65 -210q0 -142 78.5 -229t216.5 -87q17 0 57 4v-188q-54 -4 -69 -4
q-160 0 -274.5 67t-170 180t-55.5 261q0 223 122.5 349t315.5 126q76 0 138 -23.5t104 -64.5t69.5 -87.5t43.5 -101.5h6q20 66 53.5 118.5t94.5 95.5t141 57v241h-1270v181h1954v-181h-473v-254q134 -41 213 -159t79 -297q0 -148 -55.5 -261t-169.5 -180t-274 -67zM825 -352
l328 366h287l329 -366h-223l-250 284l-249 -284h-222z" />
    <glyph glyph-name="dvV_RA" horiz-adv-x="1376" 
d="M653 348q77 0 139 27.5t99 72.5t56.5 97.5t19.5 107.5v2q0 58 -19.5 111.5t-56.5 98t-98.5 71.5t-139.5 27q-133 0 -221 -84.5t-88 -221.5q0 -140 86.5 -224.5t222.5 -84.5zM1425 1335h-249v-1335h-209v379q-25 -46 -80 -94l-369 -375h-233l286 278q-199 9 -318.5 139.5
t-119.5 336.5q0 210 129 341.5t336 131.5q128 0 222 -51.5t147 -141.5v391h-1016v181h1474v-181z" />
    <glyph glyph-name="dvSH_RA" horiz-adv-x="1683" 
d="M602 870l43 -22l4 4q91 68 140 135.5t49 157.5q0 86 -58 148t-157 63q-92 0 -152 -59t-63 -142q-3 -94 46 -162t148 -123zM1272 0v324l-148 77l-440 -415h-252v18l535 481l-305 162l-340 -264h-246v27l422 325q-144 86 -217.5 186.5t-73.5 231.5q0 164 111.5 272.5
t297.5 108.5q190 0 304 -105.5t114 -263.5q0 -121 -53.5 -213t-173.5 -190l432 -230l18 -4l-4 -4l19 -10v1002h461v-181h-250v-1335h-211z" />
    <glyph glyph-name="dvSS_RA" horiz-adv-x="1372" 
d="M664 549q104 0 175 49.5t101 134.5l-569 438v-282q0 -159 73.5 -249.5t219.5 -90.5zM961 883v452h-588zM-49 1335v181h1470v-181h-250v-1335h-210v532q-28 -43 -76 -79l-469 -486h-236l418 406q-211 7 -322.5 148t-111.5 374v440h-213z" />
    <glyph glyph-name="dvS_RA" horiz-adv-x="1818" 
d="M883 1163q0 -181 -99 -301h627v473h-528v-172zM-49 1335v181h1917v-181h-250v-1335h-188v399l-386 -520h-208l575 733v84h-1051v-315q0 -97 46.5 -156t138.5 -59q80 0 126 60t46 157v27h186q2 -16 2 -37q0 -180 -95.5 -285.5t-262.5 -105.5q-187 0 -288 113.5t-101 295.5
v451h178q168 0 251 85.5t83 235.5v172h-719z" />
    <glyph glyph-name="dvH_RA" horiz-adv-x="1200" 
d="M1090 70q-21 -147 -145 -245.5t-318 -98.5q-225 0 -354.5 136t-129.5 351q0 133 56.5 238t158.5 165q-76 36 -120.5 98.5t-44.5 149.5q0 125 90 192.5t241 67.5h238v211h-811v181h1296v-181h-280v-366h-369q-85 0 -138.5 -35t-53.5 -111q0 -53 31.5 -90t86.5 -55
q44 8 103 8q167 0 284.5 -79.5t147.5 -200.5l-213 -224h-195l215 226q-32 48 -91 81t-142 33q-131 0 -209 -90.5t-78 -226.5t78 -222.5t213 -86.5q105 0 173 51.5t91 122.5h189z" />
    <glyph glyph-name="dvLL_RA" horiz-adv-x="2021" 
d="M625 354q124 0 202 78t78 203q0 127 -77.5 207t-202.5 80q-124 0 -203.5 -80t-79.5 -209q0 -125 80 -202t203 -77zM1395 354q124 0 203 77t79 202q0 130 -78 209.5t-202 79.5q-125 0 -203 -80t-78 -207q0 -125 77.5 -203t201.5 -78zM1683 -121l-249 285l-250 -285h-221
l288 322q-175 69 -237 241h-8q-42 -123 -151.5 -197.5t-258.5 -74.5q-199 0 -331 129t-132 336q0 211 131.5 341t329.5 130q146 0 251.5 -71t162.5 -197h6q47 108 132.5 176.5t203.5 85.5v235h-1399v181h2117v-181h-509v-245q148 -41 238.5 -161.5t90.5 -293.5
q0 -153 -74 -265.5t-200 -164.5l293 -326h-224z" />
    <glyph glyph-name="dvKx_RA" horiz-adv-x="2134" 
d="M1034 0v385q-24 -46 -71 -90l-377 -389h-234l291 293q-175 12 -285 137t-110 321q0 213 121.5 342t318.5 129q125 0 212 -50t134 -136v393h-1083v181h2232v-181h-942v-397q45 88 130 139t206 51q189 0 306.5 -131t117.5 -335q0 -218 -119 -343.5t-307 -125.5
q-74 0 -131 14v170q31 -8 78 -8q114 0 188 77t74 211q0 128 -76.5 207.5t-194.5 79.5q-69 0 -123 -26.5t-85 -71t-47 -97t-17 -110.5v-639h-207zM750 360q26 0 61 7l8 8l10 -4q99 26 152 107t53 175q0 55 -17 105.5t-50.5 92.5t-89.5 67.5t-127 25.5q-123 0 -204 -79
t-81 -210q0 -135 79.5 -215t205.5 -80zM174 0q-52 0 -87.5 35t-35.5 88q0 54 35 89.5t88 35.5q54 0 90.5 -35.5t36.5 -89.5q0 -52 -36.5 -87.5t-90.5 -35.5z" />
    <glyph glyph-name="dvKHx_RA" horiz-adv-x="1927" 
d="M1513 0v410q-92 -146 -288 -146q-39 0 -76 6q-31 -57 -72 -104l-422 -455h-229v13l266 276h-2q-244 0 -387 137t-143 381v301h67q137 0 212 67t75 228v221h-563v181h2025v-181h-250v-1335h-213zM203 -268q-53 0 -88 35t-35 88q0 54 35 89.5t88 35.5q54 0 90.5 -35.5
t36.5 -89.5q0 -52 -36.5 -87.5t-90.5 -35.5zM1268 430q61 0 109.5 22.5t77 59.5t43.5 81t15 91q0 102 -62 178t-183 76q-107 0 -179.5 -67.5t-72.5 -182.5q0 -120 71.5 -189t180.5 -69zM696 178q103 0 174.5 45t112.5 117q-76 57 -118 145.5t-42 202.5q0 184 114 300
t288 116q196 0 288 -146v377h-784v-248q0 -108 -27 -189.5t-76.5 -130.5t-112.5 -74t-140 -29v-170q0 -142 86 -229t237 -87z" />
    <glyph glyph-name="dvGx_RA" horiz-adv-x="1566" 
d="M1157 0v473l-512 -514h-248l756 735v641h-334v-407q0 -81 -20.5 -149t-63 -121t-113 -83t-163.5 -30q-178 0 -273.5 99.5t-95.5 270.5q0 44 2 64h209v-64q0 -80 36 -133t116 -53q151 0 151 189v417h-653v181h1665v-181h-250v-1335h-209zM205 88q-53 0 -88 35t-35 88
q0 54 35 89.5t88 35.5q54 0 90.5 -35.5t36.5 -89.5q0 -52 -36.5 -87.5t-90.5 -35.5z" />
    <glyph glyph-name="dvJx_RA" horiz-adv-x="1732" 
d="M-49 1335v181h1831v-181h-250v-1335h-201v446l-489 -524h-238l723 744v182h-362v-29q0 -191 -109.5 -309.5t-300.5 -118.5q-197 0 -306.5 118t-109.5 310v203h217v-199q0 -111 53.5 -176t147.5 -65q96 0 151.5 65t55.5 176v199h563v313h-1376zM297 -41q-53 0 -88 35.5
t-35 87.5q0 54 35 89.5t88 35.5q54 0 90.5 -35.5t36.5 -89.5q0 -52 -36.5 -87.5t-90.5 -35.5z" />
    <glyph glyph-name="dvPHx_RA" horiz-adv-x="2154" 
d="M778 563q124 0 192 81.5t68 203.5v487h-522v-450q0 -151 65.5 -236.5t196.5 -85.5zM-49 1335v181h2253v-181h-949v-395q48 87 136 137.5t211 50.5q188 0 304.5 -129t116.5 -331q0 -221 -118.5 -348t-307.5 -127q-70 0 -139 16v168q48 -10 86 -10q117 0 189.5 78.5
t72.5 211.5q0 128 -75.5 207.5t-192.5 79.5q-95 0 -161 -48.5t-94 -120.5t-28 -159v-616h-217v539q-17 -28 -51 -58l-455 -514h-235l401 424q-193 10 -295 143t-102 351v450h-350zM174 154q-53 0 -88 35t-35 87q0 54 35 89.5t88 35.5q54 0 90.5 -35.5t36.5 -89.5
q0 -52 -36.5 -87t-90.5 -35z" />
    <glyph glyph-name="dvK_R" horiz-adv-x="1488" 
d="M920 0v385q-28 -50 -70 -90l-379 -389h-233l288 293q-174 12 -283.5 137t-109.5 321q0 213 121.5 342t318.5 129q124 0 212 -51t135 -137v395h-969v181h1935v-181h-760v-399q45 89 130 140.5t206 51.5q189 0 306.5 -132t117.5 -339h-217q0 128 -76.5 207.5t-193.5 79.5
q-69 0 -123 -26.5t-85.5 -71t-47.5 -97t-17 -110.5v-639h-206zM635 360q27 0 59 7l8 8l13 -4q98 25 151.5 106.5t53.5 175.5q0 55 -17.5 105.5t-51 92.5t-89.5 67.5t-127 25.5q-122 0 -203.5 -79.5t-81.5 -209.5q0 -135 80 -215t205 -80z" />
    <glyph glyph-name="dvKH_R" horiz-adv-x="1378" 
d="M-49 1335v181h1771v-181h-993v-248q0 -108 -27 -189.5t-76.5 -130.5t-112.5 -74t-140 -29v-170q0 -142 86 -229t237 -87q106 0 177.5 47t111.5 121q-160 121 -160 336q0 192 124.5 305t324.5 113q201 0 324.5 -112.5t123.5 -305.5q0 -195 -125.5 -307.5t-322.5 -112.5
q-64 0 -123 12q-29 -57 -74 -108l-422 -455h-229v13l266 276h-2q-244 0 -387 137t-143 381v301h67q137 0 212 67t75 228v221h-563zM1274 426q119 0 189.5 69.5t70.5 186.5t-70.5 186.5t-189.5 69.5q-117 0 -187.5 -69.5t-70.5 -186.5t70.5 -186.5t187.5 -69.5z" />
    <glyph glyph-name="dvG_R" horiz-adv-x="1021" 
d="M1196 512l-551 -553h-248l799 776v-223zM-49 1335v181h1245v-181h-377v-407q0 -81 -20.5 -149t-63 -121t-113 -83t-163.5 -30q-178 0 -273.5 99.5t-95.5 270.5q0 44 2 64h209v-64q0 -80 36 -133t116 -53q151 0 151 189v417h-653z" />
    <glyph glyph-name="dvGH_R" horiz-adv-x="841" 
d="M-49 1335v181h1263v-181h-808v-129q0 -110 59.5 -166.5t191.5 -56.5h93v-174h-109q-133 0 -198.5 -56.5t-65.5 -148.5q0 -106 79 -162.5t206 -56.5q167 0 268.5 98.5t101.5 251.5h182q0 -122 -46.5 -225.5t-133.5 -175.5l-413 -440h-234l318 317q-14 -2 -43 -2
q-234 0 -368 96.5t-134 278.5q0 123 74 204t182 103v4q-102 20 -164 93.5t-62 207.5v139h-239z" />
    <glyph glyph-name="dvNG_R" horiz-adv-x="1376" 
d="M1217 668q-52 0 -88.5 36t-36.5 87q0 52 36 88t89 36t88.5 -35.5t35.5 -88.5q0 -51 -36 -87t-88 -36zM784 -782l-254 422h215l261 -422h-222zM-49 1335v181h1474v-181h-464v-372h-367q-41 0 -76 -6.5t-68 -22t-52 -46t-19 -73.5q0 -78 53 -112.5t137 -34.5h93
q65 0 123.5 -11t113.5 -37t94.5 -65t63.5 -100t24 -138q0 -120 -66 -205.5t-192 -121.5l283 -314h-223l-250 285l-250 -285h-221l282 316q-144 40 -226 136.5t-85 233.5h213q2 -105 78.5 -168t210.5 -63q118 0 181 51.5t63 136.5q0 53 -20.5 92t-57 61t-81 32t-97.5 10h-80
q-54 0 -104 8t-101.5 29.5t-89 55t-61 88.5t-23.5 126q0 78 30.5 136.5t84 92t118 50t138.5 16.5h217v219h-801z" />
    <glyph glyph-name="dvC_R" horiz-adv-x="923" 
d="M-49 1335v181h1333v-181h-1333zM102 901v170h748v-170h-76q-128 0 -206.5 -75t-78.5 -193q0 -122 82.5 -191t206.5 -69q144 1 233 101.5t89 252.5h184q3 -133 -44.5 -242t-137.5 -180l-371 -399h-233l284 287h-24q-135 0 -240 45t-168 138t-63 222q0 201 155 303h-340z
" />
    <glyph glyph-name="dvCH_R" horiz-adv-x="1677" 
d="M-49 1335v181h1775v-181h-1327v-186q0 -109 57.5 -166t182.5 -57h43v-174h-39q-141 0 -212 -64.5t-71 -165.5q0 -139 119.5 -212.5t339.5 -73.5q263 0 419.5 122.5t156.5 339.5q0 123 -58.5 193t-140.5 70q-77 0 -133.5 -54.5t-56.5 -161.5q0 -82 32 -180h-178
q-35 93 -35 203q0 92 31 161.5t84.5 110t118.5 60.5t139 20q170 0 278.5 -112.5t108.5 -317.5q0 -241 -141 -402t-391 -214l282 -314h-223l-250 285l-250 -285h-221l268 299q-240 29 -378 142t-138 301q0 134 73.5 219t193.5 113v6q-100 19 -162 93t-62 208v194h-235z" />
    <glyph glyph-name="dvJ_R" horiz-adv-x="1120" 
d="M604 -78l823 848v-217l-585 -631h-238zM-49 1335v181h1476v-181h-1476zM555 391q-197 0 -306.5 118t-109.5 310v203h217v-199q0 -111 53.5 -176t147.5 -65q96 0 151.5 65t55.5 176v199h663v-184h-462v-19q0 -191 -109.5 -309.5t-300.5 -118.5z" />
    <glyph glyph-name="dvJH_R" horiz-adv-x="1161" 
d="M399 131v-293h-202v512h192q11 -91 81 -150t189 -59q105 0 159 50t54 126q0 93 -65.5 145t-190.5 52h-114q-68 2 -128 20t-110 53t-79 93.5t-29 134.5q0 81 30.5 141t84.5 94.5t118.5 51t140.5 16.5h218v217h-797v181h1528v-181h-525v-372h-366q-42 0 -77 -6.5t-68.5 -22
t-52.5 -46.5t-19 -75q0 -75 53.5 -110t140.5 -35h914v-164l-486 2q78 -85 78 -215q0 -136 -90.5 -222.5t-257.5 -86.5q-70 0 -129 16.5t-97.5 43t-60 47t-37.5 42.5zM1479 197l-318 -420h-217l535 639v-219z" />
    <glyph glyph-name="dvNY_R" horiz-adv-x="1105" 
d="M592 205q-197 0 -322 105t-137 263h203q14 -77 84 -131.5t174 -54.5q131 0 202.5 81.5t71.5 203.5q0 116 -72 196t-202 80q-105 0 -171 -54t-87 -132h-203q18 161 139.5 264.5t319.5 103.5q184 0 304 -93.5t155 -248.5h348v-182h-340q-21 -180 -144 -290.5t-323 -110.5z
M727 -168l672 717v-225l-451 -492h-221zM-49 1335v181h1448v-181h-1448z" />
    <glyph glyph-name="dvTT_R" horiz-adv-x="1329" 
d="M848 -664l-254 422h215l260 -422h-221zM-49 1335v181h1427v-181h-411v-395h-230q-83 0 -152.5 -21.5t-123 -63.5t-83.5 -109.5t-30 -153.5q0 -146 96 -239t248 -93q156 0 252 97t96 251h205q0 -188 -94.5 -322.5t-261.5 -185.5l274 -305h-223l-244 279h-12l-244 -279
h-221l275 307q-165 52 -263 181.5t-98 308.5q0 250 161 390t431 140h31v213h-805z" />
    <glyph glyph-name="dvTTH_R" horiz-adv-x="1384" 
d="M690 266q153 0 249.5 95t96.5 243t-96 241t-250 93q-151 0 -247.5 -93.5t-96.5 -240.5q0 -148 96.5 -243t247.5 -95zM946 -209l-250 285l-250 -285h-221l285 320q-171 47 -274 177.5t-103 315.5q0 207 126.5 341.5t322.5 166.5v223h-631v181h1479v-181h-635v-223
q199 -31 326.5 -165t127.5 -343q0 -183 -100 -313t-268 -178l288 -322h-223zM844 -670l-254 422h215l260 -422h-221z" />
    <glyph glyph-name="dvDD_R" horiz-adv-x="1171" 
d="M770 -782l-254 422h215l260 -422h-221zM-49 1335v181h1268v-181h-269v-372h-356q-41 0 -76 -6.5t-68 -22t-52 -46t-19 -73.5q0 -78 53 -112.5t137 -34.5h93q65 0 123.5 -11t113.5 -37t94.5 -65t63.5 -100t24 -138q0 -122 -69 -208t-199 -121l281 -312h-224l-249 285
l-250 -285h-221l284 320q-139 40 -218.5 136t-82.5 230h213q2 -105 78.5 -168t210.5 -63q118 0 181 51.5t63 136.5q0 53 -20.5 92t-57 61t-81 32t-97.5 10h-80q-54 0 -104 8t-101.5 29.5t-89 55t-61 88.5t-23.5 126q0 78 30.5 136.5t84 92t118 50t138.5 16.5h208v219h-792z
" />
    <glyph glyph-name="dvDDH_R" horiz-adv-x="1320" 
d="M879 -743l-254 421h215l260 -421h-221zM-49 1335v181h1419v-181h-364v-354h-207q-204 0 -331.5 -106.5t-127.5 -307.5q0 -178 115 -290.5t311 -112.5q139 0 229 68t90 180q0 80 -50 131t-128 51q-68 0 -115 -43.5t-47 -112.5q0 -21 7 -39h-158q-6 35 -6 68
q0 132 91.5 207.5t235.5 75.5q162 0 258.5 -93.5t96.5 -244.5q0 -152 -92.5 -255t-259.5 -137l274 -305h-223l-250 285l-250 -285h-221l289 324q-185 55 -294.5 195t-109.5 339q0 136 45.5 243.5t127 176t190 104.5t237.5 36h70v202h-852z" />
    <glyph glyph-name="dvNN_R" horiz-adv-x="1167" 
d="M606 -74l758 787v-242l-512 -545h-246zM-49 1335v181h1413v-181h-367v-403q0 -188 -106.5 -305t-302.5 -117q-194 0 -301 118t-107 304v403h-229zM590 692q92 0 144 61t52 160v422h-395v-422q0 -98 54 -159.5t145 -61.5z" />
    <glyph glyph-name="dvT_R" horiz-adv-x="864" 
d="M135 578q0 225 149 364t394 139q202 0 348.5 -107t196.5 -284l-703 -690h-278v10l770 711q-41 85 -126 136.5t-196 51.5q-147 0 -243.5 -87.5t-96.5 -243.5h-215zM-49 1335v181h1272v-181h-1272z" />
    <glyph glyph-name="dvTH_R" horiz-adv-x="968" 
d="M1356 725q0 -127 -52 -231t-145 -175l-565 -483h-266v12l426 345h-9q-280 0 -439 150t-159 415q0 58 9 119h194q410 0 410 272q0 87 -52 144t-141 57q-93 0 -146.5 -56.5t-53.5 -152.5q0 -30 8 -84h-195q-8 58 -8 90q0 180 111.5 283.5t285.5 103.5q176 0 284 -108.5
t108 -282.5q0 -205 -142 -313.5t-389 -108.5h-76q5 -157 102.5 -252.5t284.5 -95.5q189 0 308.5 95t119.5 257h187z" />
    <glyph glyph-name="dvD_R" horiz-adv-x="1247" 
d="M1139 -614l-254 421h215l260 -421h-221zM-49 1335v181h1345v-181h-276v-391h-322q-152 0 -249 -79.5t-97 -223.5q0 -131 77.5 -209t209.5 -78q66 0 123 25.5t97 84.5t40 142h199v-649h-211v369q-20 -27 -41 -45h2l-395 -408h-234l318 320q-179 12 -291.5 131.5
t-112.5 322.5q0 117 42 209.5t116.5 151t172.5 89.5t214 31h127v207h-854z" />
    <glyph glyph-name="dvDH_R" horiz-adv-x="876" 
d="M664 186q-143 0 -252.5 38.5t-175.5 122t-66 202.5q0 125 73.5 202.5t172.5 94.5v6q-110 28 -185 113.5t-75 224.5q0 153 100.5 248.5t259.5 95.5q162 0 255 -92t93 -240q0 -26 -4 -72h-162q2 25 2 48q0 76 -47.5 126t-130.5 50q-84 0 -133 -53t-49 -134
q0 -109 82.5 -168t214.5 -59h119v-174h-111q-123 0 -189.5 -52.5t-66.5 -142.5q0 -103 83.5 -153.5t209.5 -50.5q180 0 282.5 85t102.5 224h188q0 -217 -157 -352l-426 -459h-236l326 328q-58 -7 -98 -7z" />
    <glyph glyph-name="dvN_R" horiz-adv-x="1046" 
d="M549 211q-183 0 -305.5 111t-122.5 296q0 192 126 301t320 109h801v-180h-504q92 -106 92 -256q0 -176 -115.5 -278.5t-291.5 -102.5zM553 393q101 0 166 64t65 164q0 99 -65 163t-166 64q-104 0 -171 -64.5t-67 -165.5q0 -100 66 -162.5t172 -62.5zM610 -160l758 795
v-225l-522 -570h-236zM-49 1335v181h1417v-181h-1417z" />
    <glyph glyph-name="dvP_R" horiz-adv-x="741" 
d="M-49 1335v181h1167v-181h-739v-440q0 -156 71 -244t214 -88q130 0 203 84.5t73 210.5h178q0 -121 -42.5 -219t-123.5 -162l-456 -510h-234l400 414h-15q-233 0 -358 140t-125 374v440h-213z" />
    <glyph glyph-name="dvPH_R" horiz-adv-x="1486" 
d="M641 563q122 0 191 81.5t69 203.5v487h-522v-450q0 -151 65.5 -236.5t196.5 -85.5zM-49 1335v181h1935v-181h-770v-399q47 88 135.5 140t212.5 52q200 0 311 -128.5t111 -342.5h-217q0 132 -69.5 209.5t-200.5 77.5q-95 0 -161 -48.5t-94 -120.5t-28 -159v-616h-215v539
q-23 -33 -49 -56l-457 -516h-235l401 424q-193 10 -295 143t-102 351v450h-213z" />
    <glyph glyph-name="dvB_R" horiz-adv-x="831" 
d="M-49 1335v181h1229v-181h-1229zM657 166q-234 0 -379 137t-145 356q0 218 143.5 355t378.5 137q104 0 191 -28t147 -75t102 -110t61.5 -132t19.5 -142q0 -114 -41.5 -212.5t-122.5 -166.5l-377 -400h-221l286 283q-14 -2 -43 -2zM662 1001q-137 0 -236 -83l528 -445
q52 85 52 184q0 65 -22.5 125.5t-64 110t-108.5 79t-149 29.5zM664 317q140 0 231 84l-530 445q-52 -84 -52 -191q0 -154 102.5 -246t248.5 -92z" />
    <glyph glyph-name="dvBH_R" horiz-adv-x="1062" 
d="M541 403q94 0 144 64.5t50 179.5v123h-174q-97 0 -158 -50t-61 -136q0 -82 55.5 -131.5t143.5 -49.5zM543 225q-180 0 -290 99t-110 260q0 172 116.5 266t299.5 94h176v174q0 232 -172 232q-75 0 -120.5 -51t-45.5 -138q0 -31 6 -71h-208q-9 61 -9 81q0 164 98.5 263.5
t274.5 99.5q99 0 171.5 -33.5t115.5 -95.5t63.5 -142.5t20.5 -181.5v-137h411v-174h-411v-111q0 -201 -102.5 -317.5t-284.5 -116.5zM555 -160l786 752v-199l-548 -553h-238z" />
    <glyph glyph-name="dvM_R" horiz-adv-x="1050" 
d="M489 414q94 0 145.5 65t51.5 180v146h-176q-96 0 -156.5 -53.5t-60.5 -143.5q0 -88 54.5 -141t141.5 -53zM494 -160l835 799v-199l-598 -600h-237zM-49 1335v181h1382v-181h-452v-358h450v-172h-450v-135q0 -202 -102 -317t-287 -115q-179 0 -288.5 101t-109.5 267
q0 177 116 274t298 97h178v358h-735z" />
    <glyph glyph-name="dvY_R" horiz-adv-x="903" 
d="M-49 1335v181h1352v-181h-576v-164q0 -374 -383 -395v-8q0 -177 105 -277t280 -100q164 0 270.5 96t106.5 246h197q1 -125 -51 -230.5t-150 -178.5l-531 -449h-262v12l400 322q-269 3 -422.5 157.5t-153.5 421.5q0 52 6 105h27q177 0 262.5 74.5t85.5 240.5v127h-563z
" />
    <glyph glyph-name="dvL_R" horiz-adv-x="1857" 
d="M1225 117q-16 0 -70 4v188q40 -4 57 -4q138 0 216.5 87t78.5 229q0 128 -62.5 209t-178.5 81q-123 0 -185.5 -91.5t-62.5 -244.5v-36h-180v36q0 150 -60 243t-178 93q-120 0 -185 -80t-65 -210q0 -142 78.5 -229t216.5 -87q17 0 57 4v-188q-54 -4 -69 -4
q-160 0 -274.5 67t-170 180t-55.5 261q0 223 122.5 349t315.5 126q76 0 138 -23.5t104 -64.5t69.5 -87.5t43.5 -101.5h6q20 66 53.5 118.5t94.5 95.5t141 57v241h-1270v181h1954v-181h-473v-254q134 -41 213 -159t79 -297q0 -148 -55.5 -261t-169.5 -180t-274 -67zM825 -352
l328 366h287l329 -366h-223l-250 284l-249 -284h-222zM1442 -811l-254 422h215l260 -422h-221z" />
    <glyph glyph-name="dvV_R" horiz-adv-x="786" 
d="M657 348q77 0 138 27.5t97.5 72.5t55.5 98.5t19 108.5q0 58 -19 111.5t-55.5 98.5t-97.5 71.5t-138 26.5q-135 0 -224 -84.5t-89 -221.5q0 -140 88 -224.5t225 -84.5zM653 176q-237 0 -378.5 134.5t-141.5 353.5q0 210 143 341.5t377 131.5q105 0 193 -27.5t148 -74
t102 -109t61 -131.5t19 -142q0 -98 -38.5 -189.5t-113.5 -158.5l-391 -418h-230l295 291q-14 -2 -45 -2zM-49 1335v181h1225v-181h-1225z" />
    <glyph glyph-name="dvSH_R" horiz-adv-x="1034" 
d="M602 870l43 -22l4 4q91 70 140 136.5t49 156.5q0 86 -58 148t-157 63q-92 0 -152 -59t-63 -142q-3 -94 46 -162t148 -123zM76 383v27l422 325q-143 86 -217 186.5t-74 231.5q0 164 111.5 272.5t297.5 108.5q190 0 304 -105.5t114 -263.5q0 -122 -52.5 -213.5
t-172.5 -189.5l319 -168v-191l-444 -417h-258v14l543 487l-307 160l-340 -264h-246z" />
    <glyph glyph-name="dvSS_R" horiz-adv-x="790" 
d="M668 549q111 0 182.5 52.5t93.5 129.5l-573 445v-287q0 -163 73.5 -251.5t223.5 -88.5zM-49 1335v181h1186v-181h-764l764 -579q0 -71 -31.5 -140.5t-91.5 -123.5l-508 -525h-234l410 400h-23q-241 0 -368 143t-127 385v440h-213z" />
    <glyph glyph-name="dvS_R" horiz-adv-x="1064" 
d="M836 -121l493 625v-238l-285 -387h-208zM-49 1335v181h1378v-181h-446v-172q0 -181 -99 -301h545v-166h-969v-315q0 -97 46.5 -156t138.5 -59q80 0 126 60t46 157v27h186q2 -16 2 -37q0 -180 -95.5 -285.5t-262.5 -105.5q-187 0 -288 113.5t-101 295.5v451h178
q168 0 251 85.5t83 235.5v172h-719z" />
    <glyph glyph-name="dvH_R" horiz-adv-x="1200" 
d="M1090 70q-21 -147 -145 -245.5t-318 -98.5q-225 0 -354.5 136t-129.5 351q0 133 56.5 238t158.5 165q-76 36 -120.5 98.5t-44.5 149.5q0 125 90 192.5t241 67.5h238v211h-811v181h1296v-181h-280v-366h-369q-85 0 -138.5 -35t-53.5 -111q0 -53 31.5 -90t86.5 -55
q44 8 103 8q167 0 284.5 -79.5t147.5 -200.5l-213 -224h-195l215 226q-32 48 -91 81t-142 33q-131 0 -209 -90.5t-78 -226.5t78 -222.5t213 -86.5q105 0 173 51.5t91 122.5h189zM768 -846l-254 422h215l260 -422h-221z" />
    <glyph glyph-name="dvLL_R" horiz-adv-x="2021" 
d="M596 170q-199 0 -331 129t-132 336q0 211 131.5 341t329.5 130q146 0 251.5 -71t162.5 -197h6q56 125 161 196.5t250 71.5q198 0 330.5 -130t132.5 -341q0 -153 -74 -265.5t-200 -164.5l293 -326h-224l-249 285l-250 -285h-221l288 322q-175 69 -237 241h-8
q-42 -123 -151.5 -197.5t-258.5 -74.5zM625 354q124 0 202 78t78 203q0 127 -77.5 207t-202.5 80q-124 0 -203.5 -80t-79.5 -209q0 -125 80 -202t203 -77zM1395 354q124 0 203 77t79 202q0 130 -78 209.5t-202 79.5q-125 0 -203 -80t-78 -207q0 -125 77.5 -203t201.5 -78z
M-49 1335v181h2117v-181h-2117z" />
    <glyph glyph-name="dvKx_R" horiz-adv-x="1603" 
d="M1034 0v385q-24 -46 -71 -90l-377 -389h-234l291 293q-175 12 -285 137t-110 321q0 213 121.5 342t318.5 129q125 0 212 -50t134 -136v393h-1083v181h2050v-181h-760v-397q45 88 130 139t206 51q189 0 306.5 -132t117.5 -339h-217q0 128 -76.5 207.5t-194.5 79.5
q-69 0 -123 -26.5t-85 -71t-47 -97t-17 -110.5v-639h-207zM750 360q26 0 61 7l8 8l10 -4q99 26 152 107t53 175q0 55 -17 105.5t-50.5 92.5t-89.5 67.5t-127 25.5q-123 0 -204 -79t-81 -210q0 -135 79.5 -215t205.5 -80zM174 0q-52 0 -87.5 35t-35.5 88q0 54 35 89.5
t88 35.5q54 0 90.5 -35.5t36.5 -89.5q0 -52 -36.5 -87.5t-90.5 -35.5z" />
    </font>
</defs>
</svg>
